×

¿Problemas para descargar con Mozilla, EDGE? Deshabilita la opción "Abrir vinculos en una pestaña nueva" tal como lo muestra ésta imagen.

Viernes 13 Parte IX: Jason Se Va Al Infierno (1993) 1080p Latino

342 vistas

Información de Viernes 13 Parte IX: Jason Se Va Al Infierno (1993) 1080p Latino

Datos de la película

  • Calidad: 1080p
  • Audio: Español Latino AC3 2.0 BLURAY - Ingles AC3 5.1 BLURAY
  • Subtitulos: Español Latino SRT - Ingles SRT
  • Resolución: 1920x1080p
  • Formato: MKV
  • Codec: H.264
  • Encoder: CinefiloCool
  • Mediainfo: Clic para Mostrar Datos Ver
  • Viernes 13 Pt. IX Jason Se Va Al Infierno (1993) 1080p Latino-CMHDD.mkv
    Format                      : Matroska
    Format version              : Version 4
    File size                   : 3.02 GiB
    Duration                    : 1 h 28 min
    Overall bit rate mode       : Variable
    Overall bit rate            : 4 874 kb/s
    Movie name                  : Friday The 13th Part IX - Jason Goes To Hell, The Final Friday (1993) CinemaniaHDD.Net
    Encoded date                : UTC 2020-10-30 06:24:58
    Writing application         : mkvmerge v51.0.0 ('I Wish') 64-bit
    Writing library             : libebml v1.4.0 + libmatroska v1.6.2

    Video
    ID                          : 1
    Format                      : AVC
    Format/Info                 : Advanced Video Codec
    Format profile              : High@L4
    Format settings             : CABAC / 3 Ref Frames
    Format settings, CABAC      : Yes
    Format settings, Reference  : 3 frames
    Codec ID                    : V_MPEG4/ISO/AVC
    Duration                    : 1 h 27 min
    Bit rate mode               : Variable
    Bit rate                    : 4 096 kb/s
    Width                       : 1 920 pixels
    Height                      : 1 080 pixels
    Display aspect ratio        : 16:9
    Frame rate mode             : Constant
    Frame rate                  : 23.976 (24000/1001) FPS
    Color space                 : YUV
    Chroma subsampling          : 4:2:0
    Bit depth                   : 8 bits
    Scan type                   : Progressive
    Bits/(Pixel*Frame)          : 0.082
    Stream size                 : 2.51 GiB (83%)
    Title                       : HD1080p [CinemaniaHDD]
    Writing library             : x264 core 142 r2479 dd79a61
    Encoding settings           : cabac=1 / ref=3 / deblock=1:0:0 / analyse=0x3:0x113 / me=hex / subme=7 / psy=1 / psy_rd=1.00:0.00 / mixed_ref=1 / me_range=16 / chroma_me=1 / trellis=1 / 8x8dct=1 / cqm=0 / deadzone=21,11 / fast_pskip=1 / chroma_qp_offset=-2 / threads=6 / lookahead_threads=1 / sliced_threads=0 / nr=0 / decimate=1 / interlaced=0 / bluray_compat=0 / constrained_intra=0 / bframes=3 / b_pyramid=0 / b_adapt=1 / b_bias=0 / direct=1 / weightb=1 / open_gop=0 / weightp=2 / keyint=240 / keyint_min=24 / scenecut=40 / intra_refresh=0 / rc_lookahead=40 / rc=2pass / mbtree=1 / bitrate=4096 / ratetol=1.0 / qcomp=0.60 / qpmin=0 / qpmax=69 / qpstep=4 / cplxblur=20.0 / qblur=0.5 / vbv_maxrate=25000 / vbv_bufsize=25000 / nal_hrd=vbr / filler=0 / ip_ratio=1.40 / aq=1:1.00
    Default                     : Yes
    Forced                      : No

    Audio #1
    ID                          : 2
    Format                      : AC-3
    Format/Info                 : Audio Coding 3
    Commercial name             : Dolby Digital
    Codec ID                    : A_AC3
    Duration                    : 1 h 27 min
    Bit rate mode               : Constant
    Bit rate                    : 192 kb/s
    Channel(s)                  : 2 channels
    Channel layout              : L R
    Sampling rate               : 48.0 kHz
    Frame rate                  : 31.250 FPS (1536 SPF)
    Compression mode            : Lossy
    Stream size                 : 121 MiB (4%)
    Title                       : Español Latino [CinemaniaHDD]
    Language                    : Spanish
    Service kind                : Complete Main
    Default                     : Yes
    Forced                      : No

    Audio #2
    ID                          : 3
    Format                      : AC-3
    Format/Info                 : Audio Coding 3
    Commercial name             : Dolby Digital
    Codec ID                    : A_AC3
    Duration                    : 1 h 27 min
    Bit rate mode               : Constant
    Bit rate                    : 640 kb/s
    Channel(s)                  : 6 channels
    Channel layout              : L R C LFE Ls Rs
    Sampling rate               : 48.0 kHz
    Frame rate                  : 31.250 FPS (1536 SPF)
    Compression mode            : Lossy
    Stream size                 : 402 MiB (13%)
    Title                       : Ingles [CinemaniaHDD]
    Language                    : English
    Service kind                : Complete Main
    Default                     : No
    Forced                      : No

    Text #1
    ID                          : 4
    Format                      : UTF-8
    Codec ID                    : S_TEXT/UTF8
    Codec ID/Info               : UTF-8 Plain Text
    Duration                    : 1 h 9 min
    Bit rate                    : 0 b/s
    Count of elements           : 13
    Stream size                 : 493 Bytes (0%)
    Title                       : Forzados-SRT [CinemaniaHDD]
    Language                    : Spanish
    Default                     : Yes
    Forced                      : No

    Text #2
    ID                          : 5
    Format                      : UTF-8
    Codec ID                    : S_TEXT/UTF8
    Codec ID/Info               : UTF-8 Plain Text
    Duration                    : 1 h 20 min
    Bit rate                    : 39 b/s
    Count of elements           : 727
    Stream size                 : 23.4 KiB (0%)
    Title                       : Español-SRT [CinemaniaHDD]
    Language                    : Spanish
    Default                     : No
    Forced                      : No

    Text #3
    ID                          : 6
    Format                      : UTF-8
    Codec ID                    : S_TEXT/UTF8
    Codec ID/Info               : UTF-8 Plain Text
    Duration                    : 1 h 28 min
    Bit rate                    : 38 b/s
    Count of elements           : 832
    Stream size                 : 25.1 KiB (0%)
    Title                       : Ingles-SRT [CinemaniaHDD]
    Language                    : English
    Default                     : No
    Forced                      : No

    Menu
    00:00:00.000                : en:00:00:00.000
    00:03:29.000                : en:00:03:29.000
    00:07:52.472                : en:00:07:52.472
    00:12:40.051                : en:00:12:40.051
    00:16:30.740                : en:00:16:30.740
    00:20:17.925                : en:00:20:17.925
    00:23:48.385                : en:00:23:48.385
    00:26:19.787                : en:00:26:19.787
    00:31:30.472                : en:00:31:30.472
    00:35:45.143                : en:00:35:45.143
    00:40:50.365                : en:00:40:50.365
    00:44:13.401                : en:00:44:13.401
    00:49:07.153                : en:00:49:07.153
    00:52:55.130                : en:00:52:55.130
    00:58:22.290                : en:00:58:22.290
    01:03:07.617                : en:01:03:07.617
    01:07:02.977                : en:01:07:02.977
    01:11:38.044                : en:01:11:38.044
    01:14:56.367                : en:01:14:56.367
    01:23:20.787                : en:01:23:20.787

  • Peso: 3.02 GiB

Sinopsis

Descargar Viernes 13 Parte IX: Jason Se Va Al Infierno (1993) 1080p Latino. Jason Voorhees, la esencia viviente de la respiración del mal, está de vuelta para una fiera, fling final! Rastreados y volados a pedazos por una fuerza especial del FBI, todos ahora asumen que finalmente está muerto. Pero todo el mundo se equivoca. Jason ha renacido con la asombrosa capacidad de asumir la identidad de cualquier persona que toque. La aterradora verdad es que podría estar en cualquier lugar, o cualquiera. En este impactante y sangriento final al terrible reinado de terror de Jason, el horrible secreto de su inquebrantable instinto matador finalmente se revela.

Ficha técnica

  • Titulo original: Jason Goes to Hell: The Final Friday
  • Fecha de lanzamiento: 13-08-1993 (United States of America)
  • Director: Adam Marcus
  • Género: HD 1080p, Terror

Video trailer de la película

Enlaces de descarga

Rip de Bluray

Descargar Viernes 13 Parte IX: Jason Se Va Al Infierno (1993) 1080p Latino




Aportes de DPeliculasHDmega la pass es:dpeliculashdmega.org Aportes de CinemaniaHD la pass es:cinemaniahdd.com
Guardado en : HD 1080p , Terror

Películas relacionadas

  • Wire Room (2022) HD 1080p Latino

    Wire Room (2022) HD 1080p Latino

    2022
    Wire Room (2022) HD 1080p Latino

    1h 37m 2022

    Descargar Wire Room (2022) HD 1080p Latino. Mientras está de servicio en la sala de cables, un agente...

    Director: Matt Eskandari

    Género: Acción

    Actores: Texas Battle

  • Alarido (2022) HD 1080p Latino

    Alarido (2022) HD 1080p Latino

    2022
    Alarido (2022) HD 1080p Latino

    1h 29m 2022

    Descargar Alarido (2022) HD 1080p Latino. Una joven madre soltera es cautiva junto con sus dos hijos...

    Director: D.J. Caruso

    Género: HD 1080p

    Actores: Vincent Gallo

  • Alarido (2022) PLACEBO Full HD 1080p Latino

    Alarido (2022) PLACEBO Full HD 1080p Latino

    2022
    Alarido (2022) PLACEBO Full HD 1080p Latino

    1h 29m 2022

    Descargar Alarido (2022) PLACEBO Full HD 1080p Latino. Una joven madre soltera es cautiva junto con sus...

    Director: D.J. Caruso

    Género: FULL 1080p Plateadas

    Actores: Vincent Gallo

descargar Viernes 13 Parte IX: Jason Se Va Al Infierno (1993) 1080p Latino 1080p 1080p gratis, Viernes 13 Parte IX: Jason Se Va Al Infierno (1993) 1080p Latino 1080p mega 1 link, Viernes 13 Parte IX: Jason Se Va Al Infierno (1993) 1080p Latino 1080p pelicula completa, descargar Viernes 13 Parte IX: Jason Se Va Al Infierno (1993) 1080p Latino 1080p gratis en mega.

Viernes 13 Parte IX: Jason Se Va Al Infierno (1993) 1080p Latino pelicula full hd, Viernes 13 Parte IX: Jason Se Va Al Infierno (1993) 1080p Latino mega latino, Viernes 13 Parte IX: Jason Se Va Al Infierno (1993) 1080p Latino 4k latino, Viernes 13 Parte IX: Jason Se Va Al Infierno (1993) 1080p Latino pelicula completa, Viernes 13 Parte IX: Jason Se Va Al Infierno (1993) 1080p Latino descargar gratis, descargar Viernes 13 Parte IX: Jason Se Va Al Infierno (1993) 1080p Latino pelicula latino, Viernes 13 Parte IX: Jason Se Va Al Infierno (1993) 1080p Latino 1 link mega, Viernes 13 Parte IX: Jason Se Va Al Infierno (1993) 1080p Latino 1 link google drive, Viernes 13 Parte IX: Jason Se Va Al Infierno (1993) 1080p Latino hd 1080p latino.
Comentarios 0