Viernes 13 Parte VII: Noche sangrienta (1988) Full HD 1080p Latino

1.529 vistas
1 estrella2 estrellas3 estrellas4 estrellas5 estrellas (2 votos, promedio: 5,00 de 5)
Cargando...

Información de Viernes 13 Parte VII: Noche sangrienta (1988) Full HD 1080p Latino

Datos de la película

  • Calidad: Full 1080p
  • Audio: Español Latino AC3 2.0 BLURAY - Ingles DTS 5.1 BLURAY
  • Subtitulos: Español Latino PGS - Ingles PGS
  • Resolución: 1920x1080p
  • Formato: MKV
  • Codec: H.264
  • Encoder: CinefiloCool
  • Mediainfo: Clic para Mostrar Datos Ver
  • Viernes 13 Pt. VII Sangre Nueva (1988) Full HD 1080p Latino-CMHDD.mkv
    Format                      : Matroska
    Format version              : Version 4
    File size                   : 7.44 GiB
    Duration                    : 1 h 28 min
    Overall bit rate            : 12.1 Mb/s
    Movie name                  : Friday The 13th Part VII - The New Blood (1988) CinemaniaHDD.Net
    Encoded date                : UTC 2020-10-29 00:29:58
    Writing application         : mkvmerge v51.0.0 ('I Wish') 64-bit
    Writing library             : libebml v1.4.0 + libmatroska v1.6.2
    Attachments                 : CINEMANIAHD.png

    Video
    ID                          : 1
    Format                      : AVC
    Format/Info                 : Advanced Video Codec
    Format profile              : High@L4.1
    Format settings             : CABAC / 4 Ref Frames
    Format settings, CABAC      : Yes
    Format settings, Reference  : 4 frames
    Codec ID                    : V_MPEG4/ISO/AVC
    Duration                    : 1 h 28 min
    Bit rate                    : 10.3 Mb/s
    Width                       : 1 920 pixels
    Height                      : 1 080 pixels
    Display aspect ratio        : 16:9
    Frame rate mode             : Constant
    Frame rate                  : 23.976 (24000/1001) FPS
    Color space                 : YUV
    Chroma subsampling          : 4:2:0
    Bit depth                   : 8 bits
    Scan type                   : Progressive
    Bits/(Pixel*Frame)          : 0.207
    Stream size                 : 6.36 GiB (85%)
    Title                       : Full HD1080p [CinemaniaHDD]
    Writing library             : x264 core 157 r2935 545de2f
    Encoding settings           : cabac=1 / ref=4 / deblock=1:0:0 / analyse=0x3:0x133 / me=esa / subme=10 / psy=1 / psy_rd=1.00:0.00 / mixed_ref=1 / me_range=24 / chroma_me=1 / trellis=2 / 8x8dct=1 / cqm=0 / deadzone=21,11 / fast_pskip=1 / chroma_qp_offset=-2 / threads=24 / lookahead_threads=4 / sliced_threads=0 / nr=0 / decimate=1 / interlaced=0 / bluray_compat=0 / constrained_intra=0 / bframes=8 / b_pyramid=2 / b_adapt=2 / b_bias=0 / direct=3 / weightb=1 / open_gop=0 / weightp=2 / keyint=240 / keyint_min=24 / scenecut=40 / intra_refresh=0 / rc_lookahead=60 / rc=crf / mbtree=1 / crf=20.0 / qcomp=0.60 / qpmin=0 / qpmax=69 / qpstep=4 / vbv_maxrate=62500 / vbv_bufsize=78125 / crf_max=0.0 / nal_hrd=none / filler=0 / ip_ratio=1.40 / aq=1:1.00
    Default                     : Yes
    Forced                      : Yes
    Color range                 : Limited
    Color primaries             : BT.709
    Transfer characteristics    : BT.709
    Matrix coefficients         : BT.709

    Audio #1
    ID                          : 2
    Format                      : AC-3
    Format/Info                 : Audio Coding 3
    Commercial name             : Dolby Digital
    Codec ID                    : A_AC3
    Duration                    : 1 h 28 min
    Bit rate mode               : Constant
    Bit rate                    : 224 kb/s
    Channel(s)                  : 2 channels
    Channel layout              : L R
    Sampling rate               : 48.0 kHz
    Frame rate                  : 31.250 FPS (1536 SPF)
    Compression mode            : Lossy
    Delay relative to video     : 9 ms
    Stream size                 : 141 MiB (2%)
    Title                       : Español Latino [CinemaniaHDD]
    Language                    : Spanish
    Service kind                : Complete Main
    Default                     : Yes
    Forced                      : Yes

    Audio #2
    ID                          : 3
    Format                      : DTS
    Format/Info                 : Digital Theater Systems
    Codec ID                    : A_DTS
    Duration                    : 1 h 28 min
    Bit rate mode               : Constant
    Bit rate                    : 1 509 kb/s
    Channel(s)                  : 6 channels
    Channel layout              : C L R Ls Rs LFE
    Sampling rate               : 48.0 kHz
    Frame rate                  : 93.750 FPS (512 SPF)
    Bit depth                   : 24 bits
    Compression mode            : Lossy
    Stream size                 : 953 MiB (12%)
    Title                       : Ingles [CinemaniaHDD]
    Language                    : English
    Default                     : No
    Forced                      : No

    Text #1
    ID                          : 4
    Format                      : PGS
    Muxing mode                 : zlib
    Codec ID                    : S_HDMV/PGS
    Codec ID/Info               : Picture based subtitle format used on BDs/HD-DVDs
    Duration                    : 1 h 27 min
    Bit rate                    : 17.1 kb/s
    Count of elements           : 1354
    Stream size                 : 10.7 MiB (0%)
    Title                       : Español-PGS [CinemaniaHDD]
    Language                    : Spanish
    Default                     : No
    Forced                      : No

    Text #2
    ID                          : 5
    ID in the original source m : 4608 (0x1200)
    Format                      : PGS
    Muxing mode                 : zlib
    Codec ID                    : S_HDMV/PGS
    Codec ID/Info               : Picture based subtitle format used on BDs/HD-DVDs
    Duration                    : 1 h 25 min
    Bit rate                    : 27.1 kb/s
    Count of elements           : 1848
    Stream size                 : 16.5 MiB (0%)
    Title                       : Ingles-PGS [CinemaniaHDD]
    Language                    : English
    Default                     : No
    Forced                      : No
    Original source medium      : Blu-ray

    Text #3
    ID                          : 6
    Format                      : UTF-8
    Codec ID                    : S_TEXT/UTF8
    Codec ID/Info               : UTF-8 Plain Text
    Duration                    : 1 h 21 min
    Bit rate                    : 0 b/s
    Count of elements           : 6
    Stream size                 : 132 Bytes (0%)
    Title                       : Forzados-SRT [CinemaniaHDD]
    Language                    : Spanish
    Default                     : Yes
    Forced                      : Yes

    Text #4
    ID                          : 7
    Format                      : UTF-8
    Codec ID                    : S_TEXT/UTF8
    Codec ID/Info               : UTF-8 Plain Text
    Duration                    : 1 h 24 min
    Bit rate                    : 33 b/s
    Count of elements           : 676
    Stream size                 : 20.9 KiB (0%)
    Title                       : Español-SRT [CinemaniaHDD]
    Language                    : Spanish
    Default                     : No
    Forced                      : No

    Menu
    00:00:00.000                : en:Chapter 01
    00:04:55.670                : en:Chapter 02
    00:12:38.299                : en:Chapter 03
    00:21:01.343                : en:Chapter 04
    00:28:07.894                : en:Chapter 05
    00:35:57.530                : en:Chapter 06
    00:45:53.751                : en:Chapter 07
    00:54:16.294                : en:Chapter 08
    01:00:56.402                : en:Chapter 09
    01:07:02.018                : en:Chapter 10
    01:16:34.673                : en:Chapter 11
    01:25:08.269                : en:Chapter 12

  • Peso: 7.44 GiB

Sinopsis

Descargar Viernes 13 Parte VII: Noche sangrienta (1988) Full HD 1080p Latino. Tina posee el don de telekinesis, permitiéndole mover cosas y ver el futuro, usando el poder de su mente. Pero cuando un médico tortuoso trata de explotar su habilidad, el regalo se convierte en una maldición infernal. Tina involuntariamente desencadena el despiadado sanguinario Jason Voorhees de su tumba acuosa, encendiendo un baño de sangre que termina en el último enfrentamiento en la fuerza de la mente frente a la pura materia malvada.

RESUBIDO NUEVO RIP!!

Ficha técnica

Video trailer de la película

Enlaces de descarga

Rip de Bluray

Descargar Viernes 13 Parte VII: Noche sangrienta (1988) Full HD 1080p Latino




Aportes de DPeliculasHDmega la pass es:dpeliculashdmega.org Aportes de CinemaniaHD la pass es:cinemaniahdd.com

Películas relacionadas

  • El Atrapasueños (2020) HD 1080p Latino

    El Atrapasueños (2020) HD 1080p Latino

    2020
    El Atrapasueños (2020) HD 1080p Latino

    0.0 0h 0m 2020

    Descargar El Atrapasueños (2020) HD 1080p Latino. Para detener sus malos sueños, un niño roba un cazador...

    Director: Kerry Harris

    Género: Suspenso

    Actores: Radha Mitchell

  • El Atrapasueños (2020) REMUX 1080p Latino

    El Atrapasueños (2020) REMUX 1080p Latino

    2020
    El Atrapasueños (2020) REMUX 1080p Latino

    0.0 1h 25m 2020

    Descargar El Atrapasueños (2020) REMUX 1080p Latino. Para detener sus malos sueños, un niño roba un...

    Director: Kerry Harris

    Género: Suspenso

    Actores: Radha Mitchell

  • Van Helsing (2004) 1080p Latino

    Van Helsing (2004) 1080p Latino

    2004
    Van Helsing (2004) 1080p Latino

    0.0 2h 11m 2004

    Descargar Van Helsing (2004) 1080p Latino. Siglo XIX. En medio de los montes de los Cárpatos está la...

    Director: Sylvie Chesneau

    Género: Acción

    Actores: Zuzana Durdinová

  • Van Helsing (2004) Full HD 1080p Latino

    Van Helsing (2004) Full HD 1080p Latino

    2004
    Van Helsing (2004) Full HD 1080p Latino

    4.9 2h 11m 2004

    Descargar Van Helsing (2004) Full HD 1080p Latino. Siglo XIX. En medio de los montes de los Cárpatos...

    Director: Sylvie Chesneau

    Género: Acción

    Actores: Will Kemp

  • Van Helsing (2004) REMUX 1080p Latino

    Van Helsing (2004) REMUX 1080p Latino

    2004
    Van Helsing (2004) REMUX 1080p Latino

    5.0 2h 11m 2004

    Descargar Van Helsing (2004) REMUX 1080p Latino. Siglo XIX. En medio de los montes de los Cárpatos está...

    Director: Sylvie Chesneau

    Género: Acción

    Actores: Zuzana Durdinová

Comentarios 6
  • Percy - 13 junio, 2017

    holas el mismo error en el audio ingles , solo esta el audio de los productores y no el ingles puro de la peli , ojala tengan solucion , gracias por las peliculas gente =)

    • dpelis - 14 junio, 2017

      Gracias, por avisar, pero tantas descargas y nadie a mencionado, esperare que confirmen mas personas para revisar. saludos

  • M.Torres - 10 mayo, 2017

    se callo la parte 4 de uptobox

    • dpelis - 10 mayo, 2017

      resubire todas el fin de semana

  • roberto maass - 02 mayo, 2017

    se cayo la parte 4 🙁

    • dpelis - 02 mayo, 2017

      que servidor estimado?