×

¿Problemas para descargar con Mozilla, EDGE? Deshabilita la opción "Abrir vinculos en una pestaña nueva" tal como lo muestra ésta imagen.

Viernes 13 Parte V: Todo Comienza De Nuevo (1985) REMUX 1080p Latino

285 vistas

Información de Viernes 13 Parte V: Todo Comienza De Nuevo (1985) REMUX 1080p Latino

Datos de la película

  • Calidad: Full 1080p
  • Audio: Español Latino AC3 2.0 BLURAY - Ingles DTS 5.1 BLURAY
  • Subtitulos: Español Latino PGS - Ingles PGS
  • Resolución: 1920x1080p
  • Formato: MKV
  • Codec: H.264
  • Encoder: CinefiloCool
  • Mediainfo: Clic para Mostrar Datos Ver
  • Viernes 13 Pt. V Todo Comienza De Nuevo (1985) REMUX 1080p Latino-CMHDD.mkv
    Format                      : Matroska
    Format version              : Version 4
    File size                   : 24.1 GiB
    Duration                    : 1 h 32 min
    Overall bit rate mode       : Variable
    Overall bit rate            : 37.4 Mb/s
    Movie name                  : Friday The 13th - A New Beginning (1985) CinemaniaHDD.Net
    Encoded date                : UTC 2020-10-20 06:53:36
    Writing application         : mkvmerge v51.0.0 ('I Wish') 64-bit
    Writing library             : libebml v1.4.0 + libmatroska v1.6.2
    Attachments                 : CINEMANIAHD.png

    Video
    ID                          : 1
    ID in the original source m : 4113 (0x1011)
    Format                      : AVC
    Format/Info                 : Advanced Video Codec
    Format profile              : High@L4.1
    Format settings             : CABAC / 4 Ref Frames
    Format settings, CABAC      : Yes
    Format settings, Reference  : 4 frames
    Codec ID                    : V_MPEG4/ISO/AVC
    Duration                    : 1 h 32 min
    Bit rate mode               : Constant
    Bit rate                    : 36.0 Mb/s
    Width                       : 1 920 pixels
    Height                      : 1 080 pixels
    Display aspect ratio        : 16:9
    Frame rate mode             : Constant
    Frame rate                  : 23.976 (24000/1001) FPS
    Color space                 : YUV
    Chroma subsampling          : 4:2:0
    Bit depth                   : 8 bits
    Scan type                   : Progressive
    Bits/(Pixel*Frame)          : 0.724
    Stream size                 : 22.1 GiB (92%)
    Title                       : REMUX 1080p [CinemaniaHDD]
    Default                     : Yes
    Forced                      : No
    Original source medium      : Blu-ray

    Audio #1
    ID                          : 2
    Format                      : AC-3
    Format/Info                 : Audio Coding 3
    Commercial name             : Dolby Digital
    Codec ID                    : A_AC3
    Duration                    : 1 h 32 min
    Bit rate mode               : Constant
    Bit rate                    : 224 kb/s
    Channel(s)                  : 2 channels
    Channel layout              : L R
    Sampling rate               : 48.0 kHz
    Frame rate                  : 31.250 FPS (1536 SPF)
    Compression mode            : Lossy
    Delay relative to video     : 15 ms
    Stream size                 : 148 MiB (1%)
    Title                       : Español Latino [CinemaniaHDD]
    Language                    : Spanish
    Service kind                : Complete Main
    Default                     : Yes
    Forced                      : No

    Audio #2
    ID                          : 3
    ID in the original source m : 4353 (0x1101)
    Format                      : DTS XLL
    Format/Info                 : Digital Theater Systems
    Commercial name             : DTS-HD Master Audio
    Codec ID                    : A_DTS
    Duration                    : 1 h 32 min
    Bit rate mode               : Variable
    Bit rate                    : 2 835 kb/s
    Channel(s)                  : 6 channels
    Channel layout              : C L R Ls Rs LFE
    Sampling rate               : 48.0 kHz
    Frame rate                  : 93.750 FPS (512 SPF)
    Bit depth                   : 24 bits
    Compression mode            : Lossless
    Stream size                 : 1.83 GiB (8%)
    Title                       : Ingles [CinemaniaHDD]
    Language                    : English
    Default                     : No
    Forced                      : No
    Original source medium      : Blu-ray

    Text #1
    ID                          : 4
    Format                      : PGS
    Muxing mode                 : zlib
    Codec ID                    : S_HDMV/PGS
    Codec ID/Info               : Picture based subtitle format used on BDs/HD-DVDs
    Duration                    : 1 h 30 min
    Bit rate                    : 14.0 kb/s
    Count of elements           : 1020
    Stream size                 : 9.05 MiB (0%)
    Title                       : Español-PGS [CinemaniaHDD]
    Language                    : Spanish
    Default                     : No
    Forced                      : No

    Text #2
    ID                          : 5
    ID in the original source m : 4608 (0x1200)
    Format                      : PGS
    Muxing mode                 : zlib
    Codec ID                    : S_HDMV/PGS
    Codec ID/Info               : Picture based subtitle format used on BDs/HD-DVDs
    Duration                    : 1 h 28 min
    Bit rate                    : 24.0 kb/s
    Count of elements           : 1804
    Stream size                 : 15.3 MiB (0%)
    Title                       : Ingles-PGS [CinemaniaHDD]
    Language                    : English
    Default                     : No
    Forced                      : No
    Original source medium      : Blu-ray

    Text #3
    ID                          : 6
    Format                      : UTF-8
    Codec ID                    : S_TEXT/UTF8
    Codec ID/Info               : UTF-8 Plain Text
    Duration                    : 43 min 6 s
    Bit rate                    : 0 b/s
    Count of elements           : 5
    Stream size                 : 142 Bytes (0%)
    Title                       : Forzados-SRT [CinemaniaHDD]
    Language                    : Spanish
    Default                     : Yes
    Forced                      : No

    Text #4
    ID                          : 7
    Format                      : UTF-8
    Codec ID                    : S_TEXT/UTF8
    Codec ID/Info               : UTF-8 Plain Text
    Duration                    : 1 h 27 min
    Bit rate                    : 27 b/s
    Count of elements           : 509
    Stream size                 : 17.7 KiB (0%)
    Title                       : Español-SRT [CinemaniaHDD]
    Language                    : Spanish
    Default                     : No
    Forced                      : No

    Menu
    00:00:00.000                : en:Chapter 01
    00:07:38.291                : en:Chapter 02
    00:17:48.984                : en:Chapter 03
    00:26:40.765                : en:Chapter 04
    00:33:49.944                : en:Chapter 05
    00:41:27.067                : en:Chapter 06
    00:50:46.752                : en:Chapter 07
    00:59:12.549                : en:Chapter 08
    01:06:29.485                : en:Chapter 09
    01:13:17.935                : en:Chapter 10
    01:23:15.991                : en:Chapter 11
    01:29:07.383                : en:Chapter 12

  • Peso: 24.1 GiB

Sinopsis

Descargar Viernes 13 Parte V: Todo Comienza De Nuevo (1985) REMUX 1080p Latino. Maníaco homicida Jason regresa de la tumba para causar más caos sangriento. El joven Tommy pudo haberse escapado de Crystal Lake, pero sigue acosado por los horrendos acontecimientos que ocurrieron allí. Cuando los asesinatos sangrientos comienzan a suceder en la casa aislada de la mitad de camino para los adolescentes con problemas en los que ahora vive, parece que su pesadilla nemesis, Jason, está de vuelta para matanzas más sádicos. Pero a medida que las cosas salen de control y el recuento de cuerpos aumenta, Tommy comienza a preguntarse si se ha convertido en el asesino que más teme.

Ficha técnica

  • Titulo original: Friday the 13th: A New Beginning
  • Fecha de lanzamiento: 22-03-1985 (United States of America)
  • Director: Danny Steinmann
  • Género: Remux, Terror

Video trailer de la película

Enlaces de descarga

Rip de Bluray

Descargar Viernes 13 Parte V: Todo Comienza De Nuevo (1985) REMUX 1080p Latino




Aportes de DPeliculasHDmega la pass es:dpeliculashdmega.org Aportes de CinemaniaHD la pass es:cinemaniahdd.com
Guardado en : Remux , Terror

Películas relacionadas

  • Ajin: Semi-Humano (2017) AMZN WEB-DL 1080p Latino

    Ajin: Semi-Humano (2017) AMZN WEB-DL 1080p Latino

    2017
    Ajin: Semi-Humano (2017) AMZN WEB-DL 1080p Latino

    1h 50m 2017

    Descargar Ajin: Semi-Humano (2017) AMZN WEB-DL 1080p Latino. En el manga original, aparece una persona...

    Director: Toru Yamamoto

    Género: Acción

    Actores: Yuki Yamada

  • Ajin: Semi-Humano (2017) REMUX 1080p Latino

    Ajin: Semi-Humano (2017) REMUX 1080p Latino

    2017
    Ajin: Semi-Humano (2017) REMUX 1080p Latino

    1h 50m 2017

    Descargar Ajin: Semi-Humano (2017) REMUX 1080p Latino. En el manga original, aparece una persona inmortal...

    Director: Toru Yamamoto

    Género: Acción

    Actores: Yuki Yamada

  • Zola (2020) REMUX 1080p Latino

    Zola (2020) REMUX 1080p Latino

    2020
    Zola (2020) REMUX 1080p Latino

    1h 26m 2020

    Descargar Zola (2020) REMUX 1080p Latino. Una camarera accede a acompañar a una bailarina exótica,...

    Director: Sheri Davani

    Género: Comedia

    Actores: Ts Madison

  • Hocus Pocus: Abracadabra (1993) 1080p Latino

    Hocus Pocus: Abracadabra (1993) 1080p Latino

    1993
    Hocus Pocus: Abracadabra (1993) 1080p Latino

    1h 36m 1993

    Descargar Hocus Pocus: Abracadabra (1993) 1080p Latino. Tres brujas del siglo XII son invocadas durante...

    Director: Kenny Ortega

    Género: Comedia

    Actores: Vinessa Shaw

descargar Viernes 13 Parte V: Todo Comienza De Nuevo (1985) REMUX 1080p Latino Full 1080p 1080p gratis, Viernes 13 Parte V: Todo Comienza De Nuevo (1985) REMUX 1080p Latino Full 1080p mega 1 link, Viernes 13 Parte V: Todo Comienza De Nuevo (1985) REMUX 1080p Latino Full 1080p pelicula completa, descargar Viernes 13 Parte V: Todo Comienza De Nuevo (1985) REMUX 1080p Latino Full 1080p gratis en mega.

Viernes 13 Parte V: Todo Comienza De Nuevo (1985) REMUX 1080p Latino pelicula full hd, Viernes 13 Parte V: Todo Comienza De Nuevo (1985) REMUX 1080p Latino mega latino, Viernes 13 Parte V: Todo Comienza De Nuevo (1985) REMUX 1080p Latino 4k latino, Viernes 13 Parte V: Todo Comienza De Nuevo (1985) REMUX 1080p Latino pelicula completa, Viernes 13 Parte V: Todo Comienza De Nuevo (1985) REMUX 1080p Latino descargar gratis, descargar Viernes 13 Parte V: Todo Comienza De Nuevo (1985) REMUX 1080p Latino pelicula latino, Viernes 13 Parte V: Todo Comienza De Nuevo (1985) REMUX 1080p Latino 1 link mega, Viernes 13 Parte V: Todo Comienza De Nuevo (1985) REMUX 1080p Latino 1 link google drive, Viernes 13 Parte V: Todo Comienza De Nuevo (1985) REMUX 1080p Latino hd 1080p latino.
Comentarios 0