×

¿Problemas para descargar con Mozilla, EDGE? Deshabilita la opción "Abrir vinculos en una pestaña nueva" tal como lo muestra ésta imagen.

Viernes 13 Parte V: Todo Comienza De Nuevo (1985) 1080p Latino

284 vistas

Información de Viernes 13 Parte V: Todo Comienza De Nuevo (1985) 1080p Latino

Datos de la película

  • Calidad: 1080p
  • Audio: Español Latino AC3 2.0 BLURAY - Ingles AC3 5.1 BLURAY
  • Subtitulos: Español Latino SRT - Ingles SRT
  • Resolución: 1920x1080p
  • Formato: MKV
  • Codec: H.264
  • Encoder: CinefiloCool
  • Mediainfo: Clic para Mostrar Datos Ver
  • Viernes 13 Pt. V Todo Comienza De Nuevo (1985) 1080p Latino-CMHDD.mkv
    Format                      : Matroska
    Format version              : Version 4
    File size                   : 3.20 GiB
    Duration                    : 1 h 32 min
    Overall bit rate mode       : Variable
    Overall bit rate            : 4 959 kb/s
    Movie name                  : Friday The 13th - A New Beginning (1985) CinemaniaHDD.Net
    Encoded date                : UTC 2020-10-30 05:21:24
    Writing application         : mkvmerge v51.0.0 ('I Wish') 64-bit
    Writing library             : libebml v1.4.0 + libmatroska v1.6.2
    Attachments                 : CINEMANIAHD.png

    Video
    ID                          : 1
    Format                      : AVC
    Format/Info                 : Advanced Video Codec
    Format profile              : High@L4
    Format settings             : CABAC / 3 Ref Frames
    Format settings, CABAC      : Yes
    Format settings, Reference  : 3 frames
    Codec ID                    : V_MPEG4/ISO/AVC
    Duration                    : 1 h 32 min
    Bit rate mode               : Variable
    Bit rate                    : 4 096 kb/s
    Width                       : 1 920 pixels
    Height                      : 1 080 pixels
    Display aspect ratio        : 16:9
    Frame rate mode             : Constant
    Frame rate                  : 23.976 (24000/1001) FPS
    Color space                 : YUV
    Chroma subsampling          : 4:2:0
    Bit depth                   : 8 bits
    Scan type                   : Progressive
    Bits/(Pixel*Frame)          : 0.082
    Stream size                 : 2.64 GiB (83%)
    Title                       : HD1080p [CinemaniaHDD]
    Writing library             : x264 core 135 r2345 f0c1c53
    Encoding settings           : cabac=1 / ref=3 / deblock=1:0:0 / analyse=0x3:0x113 / me=hex / subme=7 / psy=1 / psy_rd=1.00:0.00 / mixed_ref=1 / me_range=16 / chroma_me=1 / trellis=1 / 8x8dct=1 / cqm=0 / deadzone=21,11 / fast_pskip=1 / chroma_qp_offset=-2 / threads=6 / lookahead_threads=1 / sliced_threads=0 / nr=0 / decimate=1 / interlaced=0 / bluray_compat=0 / constrained_intra=0 / bframes=3 / b_pyramid=0 / b_adapt=1 / b_bias=0 / direct=1 / weightb=1 / open_gop=0 / weightp=2 / keyint=240 / keyint_min=24 / scenecut=40 / intra_refresh=0 / rc_lookahead=40 / rc=2pass / mbtree=1 / bitrate=4096 / ratetol=1.0 / qcomp=0.60 / qpmin=0 / qpmax=69 / qpstep=4 / cplxblur=20.0 / qblur=0.5 / vbv_maxrate=25000 / vbv_bufsize=25000 / nal_hrd=vbr / ip_ratio=1.40 / aq=1:1.00
    Default                     : Yes
    Forced                      : No

    Audio #1
    ID                          : 2
    Format                      : AC-3
    Format/Info                 : Audio Coding 3
    Commercial name             : Dolby Digital
    Codec ID                    : A_AC3
    Duration                    : 1 h 32 min
    Bit rate mode               : Constant
    Bit rate                    : 224 kb/s
    Channel(s)                  : 2 channels
    Channel layout              : L R
    Sampling rate               : 48.0 kHz
    Frame rate                  : 31.250 FPS (1536 SPF)
    Compression mode            : Lossy
    Delay relative to video     : 2 s 338 ms
    Stream size                 : 148 MiB (5%)
    Title                       : Español Latino [CinemaniaHDD]
    Language                    : Spanish
    Service kind                : Complete Main
    Default                     : Yes
    Forced                      : Yes

    Audio #2
    ID                          : 3
    Format                      : AC-3
    Format/Info                 : Audio Coding 3
    Commercial name             : Dolby Digital
    Codec ID                    : A_AC3
    Duration                    : 1 h 32 min
    Bit rate mode               : Constant
    Bit rate                    : 640 kb/s
    Channel(s)                  : 6 channels
    Channel layout              : L R C LFE Ls Rs
    Sampling rate               : 48.0 kHz
    Frame rate                  : 31.250 FPS (1536 SPF)
    Compression mode            : Lossy
    Stream size                 : 422 MiB (13%)
    Title                       : Ingles [CinemaniaHDD]
    Language                    : English
    Service kind                : Complete Main
    Default                     : No
    Forced                      : No

    Text #1
    ID                          : 4
    Format                      : UTF-8
    Codec ID                    : S_TEXT/UTF8
    Codec ID/Info               : UTF-8 Plain Text
    Duration                    : 43 min 6 s
    Bit rate                    : 0 b/s
    Count of elements           : 5
    Stream size                 : 142 Bytes (0%)
    Title                       : Forzados-SRT [CinemaniaHDD]
    Language                    : Spanish
    Default                     : Yes
    Forced                      : Yes

    Text #2
    ID                          : 5
    Format                      : UTF-8
    Codec ID                    : S_TEXT/UTF8
    Codec ID/Info               : UTF-8 Plain Text
    Duration                    : 1 h 27 min
    Bit rate                    : 27 b/s
    Count of elements           : 509
    Stream size                 : 17.7 KiB (0%)
    Title                       : Español-SRT [CinemaniaHDD]
    Language                    : Spanish
    Default                     : No
    Forced                      : No

    Text #3
    ID                          : 6
    Format                      : UTF-8
    Codec ID                    : S_TEXT/UTF8
    Codec ID/Info               : UTF-8 Plain Text
    Duration                    : 1 h 29 min
    Bit rate                    : 31 b/s
    Count of elements           : 604
    Stream size                 : 20.8 KiB (0%)
    Title                       : Ingles-SRT [CinemaniaHDD]
    Language                    : English
    Default                     : No
    Forced                      : No

    Menu
    00:00:00.000                : en:Chapter 01
    00:07:38.291                : en:Chapter 02
    00:17:48.984                : en:Chapter 03
    00:26:40.765                : en:Chapter 04
    00:33:49.944                : en:Chapter 05
    00:41:27.067                : en:Chapter 06
    00:50:46.752                : en:Chapter 07
    00:59:12.549                : en:Chapter 08
    01:06:29.485                : en:Chapter 09
    01:13:17.935                : en:Chapter 10
    01:23:15.991                : en:Chapter 11
    01:29:07.383                : en:Chapter 12

  • Peso: 3.20 GiB

Sinopsis

Descargar Viernes 13 Parte V: Todo Comienza De Nuevo (1985) 1080p Latino. Maníaco homicida Jason regresa de la tumba para causar más caos sangriento. El joven Tommy pudo haberse escapado de Crystal Lake, pero sigue acosado por los horrendos acontecimientos que ocurrieron allí. Cuando los asesinatos sangrientos comienzan a suceder en la casa aislada de la mitad de camino para los adolescentes con problemas en los que ahora vive, parece que su pesadilla nemesis, Jason, está de vuelta para matanzas más sádicos. Pero a medida que las cosas salen de control y el recuento de cuerpos aumenta, Tommy comienza a preguntarse si se ha convertido en el asesino que más teme.

Ficha técnica

  • Titulo original: Friday the 13th: A New Beginning
  • Fecha de lanzamiento: 22-03-1985 (United States of America)
  • Director: Danny Steinmann
  • Género: HD 1080p, Terror

Video trailer de la película

Enlaces de descarga

Rip de Bluray

Descargar Viernes 13 Parte V: Todo Comienza De Nuevo (1985) 1080p Latino




Aportes de DPeliculasHDmega la pass es:dpeliculashdmega.org Aportes de CinemaniaHD la pass es:cinemaniahdd.com
Guardado en : HD 1080p , Terror

Películas relacionadas

  • Borrego: Sal Del Camino (2022) HD 1080p Latino

    Borrego: Sal Del Camino (2022) HD 1080p Latino

    2022
    Borrego: Sal Del Camino (2022) HD 1080p Latino

    1h 42m 2022

    Descargar Borrego: Sal Del Camino (2022) HD 1080p Latino. Una joven botánica se traslada a un pequeño...

    Director: Jesse Harris

    Género: Crimen

    Actores: Olivia Trujillo

  • Poltergeist (1982) REMUX 1080p Latino – CMHDD

    Poltergeist (1982) REMUX 1080p Latino – CMHDD

    1982
    Poltergeist (1982) REMUX 1080p Latino – CMHDD

    1h 54m 1982

    Una familia americana de clase media se traslada a vivir e una nueva casa en un aparentemente idílico...

    Director: Tobe Hooper

    Género: Terror

    Actores: Zelda Rubinstein

  • Poltergeist (1982) REMUX 4K Latino – CMHDD

    Poltergeist (1982) REMUX 4K Latino – CMHDD

    1982
    Poltergeist (1982) REMUX 4K Latino – CMHDD

    1h 54m 1982

    Una familia americana de clase media se traslada a vivir e una nueva casa en un aparentemente idílico...

    Director: Tobe Hooper

    Género: Terror

    Actores: Zelda Rubinstein

  • La familia Monster (2022) HD 1080p Latino

    La familia Monster (2022) HD 1080p Latino

    2022
    La familia Monster (2022) HD 1080p Latino

    1h 49m 2022

    Descargar La familia Monster (2022) HD 1080p Latino. Reboot de "The Munsters", que sigue las desventuras...

    Director: Rob Zombie

    Género: Comedia

    Actores: Tomas Boykin

descargar Viernes 13 Parte V: Todo Comienza De Nuevo (1985) 1080p Latino 1080p 1080p gratis, Viernes 13 Parte V: Todo Comienza De Nuevo (1985) 1080p Latino 1080p mega 1 link, Viernes 13 Parte V: Todo Comienza De Nuevo (1985) 1080p Latino 1080p pelicula completa, descargar Viernes 13 Parte V: Todo Comienza De Nuevo (1985) 1080p Latino 1080p gratis en mega.

Viernes 13 Parte V: Todo Comienza De Nuevo (1985) 1080p Latino pelicula full hd, Viernes 13 Parte V: Todo Comienza De Nuevo (1985) 1080p Latino mega latino, Viernes 13 Parte V: Todo Comienza De Nuevo (1985) 1080p Latino 4k latino, Viernes 13 Parte V: Todo Comienza De Nuevo (1985) 1080p Latino pelicula completa, Viernes 13 Parte V: Todo Comienza De Nuevo (1985) 1080p Latino descargar gratis, descargar Viernes 13 Parte V: Todo Comienza De Nuevo (1985) 1080p Latino pelicula latino, Viernes 13 Parte V: Todo Comienza De Nuevo (1985) 1080p Latino 1 link mega, Viernes 13 Parte V: Todo Comienza De Nuevo (1985) 1080p Latino 1 link google drive, Viernes 13 Parte V: Todo Comienza De Nuevo (1985) 1080p Latino hd 1080p latino.
Comentarios 0