×

¿Problemas para descargar con Mozilla, EDGE? Deshabilita la opción "Abrir vinculos en una pestaña nueva" tal como lo muestra ésta imagen.

Viernes 13 Parte III (1982) REMUX 1080p Latino

295 vistas

Información de Viernes 13 Parte III (1982) REMUX 1080p Latino

Datos de la película

  • Calidad: Full 1080p
  • Audio: Español Latino AC3 2.0 BLURAY - Ingles DTS 5.1 BLURAY
  • Subtitulos: Español Latino PGS - Ingles PGS
  • Resolución: 1920x1080p
  • Formato: MKV
  • Codec: H.264
  • Encoder: CinefiloCool
  • Mediainfo: Clic para Mostrar Datos Ver
  • Viernes 13 Pt. III (1982) REMUX 1080p Latino-CMHDD.mkv
    Format                      : Matroska
    Format version              : Version 4
    File size                   : 19.4 GiB
    Duration                    : 1 h 35 min
    Overall bit rate mode       : Variable
    Overall bit rate            : 29.2 Mb/s
    Movie name                  : Friday The 13th Part III (1982) CinemaniaHDD.Net
    Encoded date                : UTC 2020-10-19 17:21:59
    Writing application         : mkvmerge v51.0.0 ('I Wish') 64-bit
    Writing library             : libebml v1.4.0 + libmatroska v1.6.2
    Attachments                 : CINEMANIAHD.png

    Video
    ID                          : 1
    ID in the original source m : 4113 (0x1011)
    Format                      : AVC
    Format/Info                 : Advanced Video Codec
    Format profile              : High@L4.1
    Format settings             : CABAC / 4 Ref Frames
    Format settings, CABAC      : Yes
    Format settings, Reference  : 4 frames
    Codec ID                    : V_MPEG4/ISO/AVC
    Duration                    : 1 h 35 min
    Bit rate mode               : Variable
    Bit rate                    : 25.9 Mb/s
    Maximum bit rate            : 38.0 Mb/s
    Width                       : 1 920 pixels
    Height                      : 1 080 pixels
    Display aspect ratio        : 16:9
    Frame rate mode             : Constant
    Frame rate                  : 23.976 (24000/1001) FPS
    Color space                 : YUV
    Chroma subsampling          : 4:2:0
    Bit depth                   : 8 bits
    Scan type                   : Progressive
    Bits/(Pixel*Frame)          : 0.521
    Stream size                 : 17.2 GiB (89%)
    Title                       : REMUX 1080p [CinemaniaHDD]
    Default                     : Yes
    Forced                      : No
    Original source medium      : Blu-ray

    Audio #1
    ID                          : 2
    Format                      : AC-3
    Format/Info                 : Audio Coding 3
    Commercial name             : Dolby Digital
    Codec ID                    : A_AC3
    Duration                    : 1 h 35 min
    Bit rate mode               : Constant
    Bit rate                    : 224 kb/s
    Channel(s)                  : 2 channels
    Channel layout              : L R
    Sampling rate               : 48.0 kHz
    Frame rate                  : 31.250 FPS (1536 SPF)
    Compression mode            : Lossy
    Delay relative to video     : 11 ms
    Stream size                 : 153 MiB (1%)
    Title                       : Español Latino [CinemaniaHDD]
    Language                    : Spanish
    Service kind                : Complete Main
    Default                     : Yes
    Forced                      : No

    Audio #2
    ID                          : 3
    ID in the original source m : 4353 (0x1101)
    Format                      : DTS XLL
    Format/Info                 : Digital Theater Systems
    Commercial name             : DTS-HD Master Audio
    Codec ID                    : A_DTS
    Duration                    : 1 h 35 min
    Bit rate mode               : Variable
    Bit rate                    : 3 062 kb/s
    Channel(s)                  : 6 channels
    Channel layout              : C L R Ls Rs LFE
    Sampling rate               : 48.0 kHz
    Frame rate                  : 93.750 FPS (512 SPF)
    Bit depth                   : 24 bits
    Compression mode            : Lossless
    Stream size                 : 2.04 GiB (10%)
    Title                       : Ingles [CinemaniaHDD]
    Language                    : English
    Default                     : No
    Forced                      : No
    Original source medium      : Blu-ray

    Text #1
    ID                          : 4
    Format                      : PGS
    Muxing mode                 : zlib
    Codec ID                    : S_HDMV/PGS
    Codec ID/Info               : Picture based subtitle format used on BDs/HD-DVDs
    Duration                    : 1 h 31 min
    Bit rate                    : 14.5 kb/s
    Count of elements           : 1010
    Stream size                 : 9.48 MiB (0%)
    Title                       : Español-PGS [CinemaniaHDD]
    Language                    : Spanish
    Default                     : No
    Forced                      : No

    Text #2
    ID                          : 5
    ID in the original source m : 4608 (0x1200)
    Format                      : PGS
    Muxing mode                 : zlib
    Codec ID                    : S_HDMV/PGS
    Codec ID/Info               : Picture based subtitle format used on BDs/HD-DVDs
    Duration                    : 1 h 31 min
    Bit rate                    : 18.3 kb/s
    Count of elements           : 1688
    Stream size                 : 12.0 MiB (0%)
    Title                       : Ingles-PGS [CinemaniaHDD]
    Language                    : English
    Default                     : No
    Forced                      : No
    Original source medium      : Blu-ray

    Text #3
    ID                          : 6
    Format                      : UTF-8
    Codec ID                    : S_TEXT/UTF8
    Codec ID/Info               : UTF-8 Plain Text
    Duration                    : 1 h 26 min
    Bit rate                    : 0 b/s
    Count of elements           : 3
    Stream size                 : 79.0 Bytes (0%)
    Title                       : Forzados-SRT [CinemaniaHDD]
    Language                    : Spanish
    Default                     : Yes
    Forced                      : No

    Text #4
    ID                          : 7
    Format                      : UTF-8
    Codec ID                    : S_TEXT/UTF8
    Codec ID/Info               : UTF-8 Plain Text
    Duration                    : 1 h 31 min
    Bit rate                    : 22 b/s
    Count of elements           : 495
    Stream size                 : 15.4 KiB (0%)
    Title                       : Español-SRT [CinemaniaHDD]
    Language                    : Spanish
    Default                     : No
    Forced                      : No

    Menu
    00:00:00.000                : en:Chapter 01
    00:07:38.583                : en:Chapter 02
    00:13:32.520                : en:Chapter 03
    00:20:24.640                : en:Chapter 04
    00:26:27.586                : en:Chapter 05
    00:34:19.724                : en:Chapter 06
    00:44:23.285                : en:Chapter 07
    00:52:21.429                : en:Chapter 08
    01:01:25.932                : en:Chapter 09
    01:09:39.758                : en:Chapter 10
    01:16:09.815                : en:Chapter 11
    01:28:00.733                : en:Chapter 12

  • Peso: 19.4 GiB

Sinopsis

Descargar Viernes 13 Parte III (1982) REMUX 1080p Latino. Un idílico verano va a convertirse en la peor de las pesadillas para otro grupo de despreocupados jóvenes de vacaciones. Ignorando el legado de sangre del campamento de Crystal Lake, uno por uno van siendo víctimas del maníaco Jason, que los acecha en cada momento.

Ficha técnica

  • Titulo original: Friday the 13th Part III
  • Fecha de lanzamiento: 13-08-1982 (United States of America)
  • Director: Steve Miner
  • Género: Remux, Terror

Video trailer de la película

Enlaces de descarga

Rip de Bluray

Descargar Viernes 13 Parte III (1982) REMUX 1080p Latino




Aportes de DPeliculasHDmega la pass es:dpeliculashdmega.org Aportes de CinemaniaHD la pass es:cinemaniahdd.com
Guardado en : Remux , Terror

Películas relacionadas

descargar Viernes 13 Parte III (1982) REMUX 1080p Latino Full 1080p 1080p gratis, Viernes 13 Parte III (1982) REMUX 1080p Latino Full 1080p mega 1 link, Viernes 13 Parte III (1982) REMUX 1080p Latino Full 1080p pelicula completa, descargar Viernes 13 Parte III (1982) REMUX 1080p Latino Full 1080p gratis en mega.

Viernes 13 Parte III (1982) REMUX 1080p Latino pelicula full hd, Viernes 13 Parte III (1982) REMUX 1080p Latino mega latino, Viernes 13 Parte III (1982) REMUX 1080p Latino 4k latino, Viernes 13 Parte III (1982) REMUX 1080p Latino pelicula completa, Viernes 13 Parte III (1982) REMUX 1080p Latino descargar gratis, descargar Viernes 13 Parte III (1982) REMUX 1080p Latino pelicula latino, Viernes 13 Parte III (1982) REMUX 1080p Latino 1 link mega, Viernes 13 Parte III (1982) REMUX 1080p Latino 1 link google drive, Viernes 13 Parte III (1982) REMUX 1080p Latino hd 1080p latino.
Comentarios 0