×

¿Problemas para descargar con Mozilla, EDGE? Deshabilita la opción "Abrir vinculos en una pestaña nueva" tal como lo muestra ésta imagen.

Viernes 13 Parte II (1981) REMUX 1080p Latino

324 vistas

Información de Viernes 13 Parte II (1981) REMUX 1080p Latino

Datos de la película

  • Calidad: Full 1080p
  • Audio: Español Latino AC3 2.0 BLURAY - Ingles DTS 5.1 BLURAY
  • Subtitulos: Español Latino PGS - Ingles PGS
  • Resolución: 1920x1080p
  • Formato: MKV
  • Codec: H.264
  • Encoder: CinefiloCool
  • Mediainfo: Clic para Mostrar Datos Ver
  • Viernes 13 Pt. II (1981) REMUX 1080p Latino-CMHDD.mkv
    Format                      : Matroska
    Format version              : Version 4
    File size                   : 22.8 GiB
    Duration                    : 1 h 26 min
    Overall bit rate mode       : Variable
    Overall bit rate            : 37.5 Mb/s
    Movie name                  : Friday The 13th Part II (1981) CinemaniaHDD.Net
    Encoded date                : UTC 2020-10-19 07:12:48
    Writing application         : mkvmerge v51.0.0 ('I Wish') 64-bit
    Writing library             : libebml v1.4.0 + libmatroska v1.6.2
    Attachments                 : CINEMANIAHD.png

    Video
    ID                          : 1
    ID in the original source m : 4113 (0x1011)
    Format                      : AVC
    Format/Info                 : Advanced Video Codec
    Format profile              : High@L4.1
    Format settings             : CABAC / 4 Ref Frames
    Format settings, CABAC      : Yes
    Format settings, Reference  : 4 frames
    Codec ID                    : V_MPEG4/ISO/AVC
    Duration                    : 1 h 26 min
    Bit rate mode               : Constant
    Bit rate                    : 36.0 Mb/s
    Width                       : 1 920 pixels
    Height                      : 1 080 pixels
    Display aspect ratio        : 16:9
    Frame rate mode             : Constant
    Frame rate                  : 23.976 (24000/1001) FPS
    Color space                 : YUV
    Chroma subsampling          : 4:2:0
    Bit depth                   : 8 bits
    Scan type                   : Progressive
    Bits/(Pixel*Frame)          : 0.724
    Stream size                 : 20.9 GiB (92%)
    Title                       : REMUX 1080p [CinemaniaHDD]
    Default                     : Yes
    Forced                      : No
    Original source medium      : Blu-ray

    Audio #1
    ID                          : 2
    Format                      : AC-3
    Format/Info                 : Audio Coding 3
    Commercial name             : Dolby Digital
    Codec ID                    : A_AC3
    Duration                    : 1 h 26 min
    Bit rate mode               : Constant
    Bit rate                    : 224 kb/s
    Channel(s)                  : 2 channels
    Channel layout              : L R
    Sampling rate               : 48.0 kHz
    Frame rate                  : 31.250 FPS (1536 SPF)
    Compression mode            : Lossy
    Delay relative to video     : 12 ms
    Stream size                 : 139 MiB (1%)
    Title                       : Español Latino [CinemaniaHDD]
    Language                    : Spanish
    Service kind                : Complete Main
    Default                     : Yes
    Forced                      : No

    Audio #2
    ID                          : 3
    ID in the original source m : 4353 (0x1101)
    Format                      : DTS XLL
    Format/Info                 : Digital Theater Systems
    Commercial name             : DTS-HD Master Audio
    Codec ID                    : A_DTS
    Duration                    : 1 h 26 min
    Bit rate mode               : Variable
    Bit rate                    : 2 784 kb/s
    Channel(s)                  : 6 channels
    Channel layout              : C L R Ls Rs LFE
    Sampling rate               : 48.0 kHz
    Frame rate                  : 93.750 FPS (512 SPF)
    Bit depth                   : 24 bits
    Compression mode            : Lossless
    Stream size                 : 1.69 GiB (7%)
    Title                       : Ingles [CinemaniaHDD]
    Language                    : English
    Default                     : No
    Forced                      : No
    Original source medium      : Blu-ray

    Text #1
    ID                          : 4
    Format                      : PGS
    Muxing mode                 : zlib
    Codec ID                    : S_HDMV/PGS
    Codec ID/Info               : Picture based subtitle format used on BDs/HD-DVDs
    Duration                    : 1 h 23 min
    Bit rate                    : 16.9 kb/s
    Count of elements           : 1040
    Stream size                 : 10.1 MiB (0%)
    Title                       : Español-PGS [CinemaniaHDD]
    Language                    : Spanish
    Default                     : No
    Forced                      : No

    Text #2
    ID                          : 5
    ID in the original source m : 4608 (0x1200)
    Format                      : PGS
    Muxing mode                 : zlib
    Codec ID                    : S_HDMV/PGS
    Codec ID/Info               : Picture based subtitle format used on BDs/HD-DVDs
    Duration                    : 1 h 24 min
    Bit rate                    : 26.0 kb/s
    Count of elements           : 1500
    Stream size                 : 15.8 MiB (0%)
    Title                       : Ingles-PGS [CinemaniaHDD]
    Language                    : English
    Default                     : No
    Forced                      : No
    Original source medium      : Blu-ray

    Text #3
    ID                          : 6
    Format                      : UTF-8
    Codec ID                    : S_TEXT/UTF8
    Codec ID/Info               : UTF-8 Plain Text
    Duration                    : 24 min 56 s
    Bit rate                    : 0 b/s
    Count of elements           : 4
    Stream size                 : 103 Bytes (0%)
    Title                       : Forzados-SRT [CinemaniaHDD]
    Language                    : Spanish
    Default                     : Yes
    Forced                      : No

    Text #4
    ID                          : 7
    Format                      : UTF-8
    Codec ID                    : S_TEXT/UTF8
    Codec ID/Info               : UTF-8 Plain Text
    Duration                    : 1 h 23 min
    Bit rate                    : 26 b/s
    Count of elements           : 509
    Stream size                 : 16.2 KiB (0%)
    Title                       : Español-SRT [CinemaniaHDD]
    Language                    : Spanish
    Default                     : No
    Forced                      : No

    Menu
    00:00:00.000                : en:Chapter 01
    00:06:20.088                : en:Chapter 02
    00:13:52.456                : en:Chapter 03
    00:24:20.625                : en:Chapter 04
    00:31:54.996                : en:Chapter 05
    00:42:44.728                : en:Chapter 06
    00:51:22.454                : en:Chapter 07
    00:56:44.275                : en:Chapter 08
    01:03:52.829                : en:Chapter 09
    01:09:15.067                : en:Chapter 10
    01:16:32.004                : en:Chapter 11
    01:25:12.732                : en:Chapter 12

  • Peso: 22.8 GiB

Sinopsis

Descargar Viernes 13 Parte II (1981) REMUX 1080p Latino. Cinco años después del horrible baño de sangre en el campamento Crystal Lake, parece que Jason Voorhees y su madre demente están en el pasado. Paul abre un nuevo campamento cerca del sitio infame, ignorando las advertencias de permanecer lejos, y un grupo sexualmente cargado de consejeros sigue – incluyendo psicólogo infantil Ginny principal. Pero Jason se ha estado escondiendo todo este tiempo, y ahora está listo para la venganza.

Ficha técnica

  • Titulo original: Friday the 13th Part 2
  • Fecha de lanzamiento: 01-05-1981 (United States of America)
  • Director: Steve Miner
  • Género: Remux, Suspenso, Terror

Video trailer de la película

Enlaces de descarga

Rip de Bluray

Descargar Viernes 13 Parte II (1981) REMUX 1080p Latino




Aportes de DPeliculasHDmega la pass es:dpeliculashdmega.org Aportes de CinemaniaHD la pass es:cinemaniahdd.com
Guardado en : Remux , Suspenso , Terror

Películas relacionadas

  • Resurrección (2022) AMZN WEB-DL 1080p Latino

    Resurrección (2022) AMZN WEB-DL 1080p Latino

    2022
    Resurrección (2022) AMZN WEB-DL 1080p Latino

    1h 43m 2022

    Descargar Resurrección (2022) AMZN Web-DL 1080p Latino. La vida cuidadosamente construida de una mujer...

    Director: Michael Kefeyalew

    Género: Drama

    Actores: Zarra Kaahn

  • El Lobo Y El Leon (2021) REMUX 1080p Latino

    El Lobo Y El Leon (2021) REMUX 1080p Latino

    2021
    El Lobo Y El Leon (2021) REMUX 1080p Latino

    1h 39m 2021

    Descargar El Lobo Y El Leon (2021) REMUX 1080p Latino. A la muerte de su abuelo, Alma, un joven pianista...

    Director: Gilles de Maistre

    Género: Aventura

    Actores: Victor Cornfoot

  • Plan De Estudios (2022) NF WEB-DL 1080p Latino

    Plan De Estudios (2022) NF WEB-DL 1080p Latino

    2022
    Plan De Estudios (2022) NF WEB-DL 1080p Latino

    1h 41m 2022

    Un expolicía empieza a trabajar en el instituto en el que su difunto mejor amigo daba clase para enfrentarse...

    Director: Daniel Markowicz

    Género: Crimen

    Actores: Zuzanna Galewicz

  • Locked In (2021) PLACEBO Full HD 1080p Latino

    Locked In (2021) PLACEBO Full HD 1080p Latino

    2021
    Locked In (2021) PLACEBO Full HD 1080p Latino

    1h 30m 2021

    Descargar Locked In (2021) PLACEBO Full HD 1080p Latino. Una madre soltera debe proteger a su hija durante...

    Director: Joe Narode

    Género: Crimen

    Actores: Natalie Smith

  • Locked In (2021) REMUX 1080p Latino

    Locked In (2021) REMUX 1080p Latino

    2021
    Locked In (2021) REMUX 1080p Latino

    1h 30m 2021

    Descargar Locked In (2021) REMUX 1080p Latino. Una madre soltera debe proteger a su hija durante un robo...

    Director: Joe Narode

    Género: Crimen

    Actores: Natalie Smith

descargar Viernes 13 Parte II (1981) REMUX 1080p Latino Full 1080p 1080p gratis, Viernes 13 Parte II (1981) REMUX 1080p Latino Full 1080p mega 1 link, Viernes 13 Parte II (1981) REMUX 1080p Latino Full 1080p pelicula completa, descargar Viernes 13 Parte II (1981) REMUX 1080p Latino Full 1080p gratis en mega.

Viernes 13 Parte II (1981) REMUX 1080p Latino pelicula full hd, Viernes 13 Parte II (1981) REMUX 1080p Latino mega latino, Viernes 13 Parte II (1981) REMUX 1080p Latino 4k latino, Viernes 13 Parte II (1981) REMUX 1080p Latino pelicula completa, Viernes 13 Parte II (1981) REMUX 1080p Latino descargar gratis, descargar Viernes 13 Parte II (1981) REMUX 1080p Latino pelicula latino, Viernes 13 Parte II (1981) REMUX 1080p Latino 1 link mega, Viernes 13 Parte II (1981) REMUX 1080p Latino 1 link google drive, Viernes 13 Parte II (1981) REMUX 1080p Latino hd 1080p latino.
Comentarios 0