×

¿Problemas para descargar con Mozilla, EDGE? Deshabilita la opción "Abrir vinculos en una pestaña nueva" tal como lo muestra ésta imagen.

Viernes 13 Parte X: Jason X (2001) REMUX 1080p Latino

345 vistas

Información de Viernes 13 Parte X: Jason X (2001) REMUX 1080p Latino

Datos de la película

  • Calidad: Full 1080p
  • Audio: Español Latino AC3 2.0 BLURAY - Ingles DTS 5.1 BLURAY
  • Subtitulos: Español Latino PGS - Ingles PGS
  • Resolución: 1920x1080p
  • Formato: MKV
  • Codec: H.264
  • Encoder: CinefiloCool
  • Mediainfo: Clic para Mostrar Datos Ver
  • Viernes 13 Pt. X Jason X (2001) REMUX 1080p Latino-CMHDD.mkv
    Format                      : Matroska
    Format version              : Version 4
    File size                   : 25.1 GiB
    Duration                    : 1 h 31 min
    Overall bit rate mode       : Variable
    Overall bit rate            : 39.2 Mb/s
    Movie name                  : Friday The 13th Part X - Jason X (2001) CinemaniaHDD.Net
    Encoded date                : UTC 2020-10-22 05:16:56
    Writing application         : mkvmerge v51.0.0 ('I Wish') 64-bit
    Writing library             : libebml v1.4.0 + libmatroska v1.6.2
    Attachments                 : CINEMANIAHD.png

    Video
    ID                          : 1
    ID in the original source m : 4113 (0x1011)
    Format                      : AVC
    Format/Info                 : Advanced Video Codec
    Format profile              : High@L4.1
    Format settings             : CABAC / 4 Ref Frames
    Format settings, CABAC      : Yes
    Format settings, Reference  : 4 frames
    Codec ID                    : V_MPEG4/ISO/AVC
    Duration                    : 1 h 31 min
    Bit rate mode               : Variable
    Bit rate                    : 34.7 Mb/s
    Maximum bit rate            : 38.0 Mb/s
    Width                       : 1 920 pixels
    Height                      : 1 080 pixels
    Display aspect ratio        : 16:9
    Frame rate mode             : Constant
    Frame rate                  : 24.000 FPS
    Color space                 : YUV
    Chroma subsampling          : 4:2:0
    Bit depth                   : 8 bits
    Scan type                   : Progressive
    Bits/(Pixel*Frame)          : 0.697
    Stream size                 : 22.2 GiB (88%)
    Title                       : REMUX 1080p [CinemaniaHDD]
    Default                     : Yes
    Forced                      : No
    Original source medium      : Blu-ray

    Audio #1
    ID                          : 2
    Format                      : AC-3
    Format/Info                 : Audio Coding 3
    Commercial name             : Dolby Digital
    Codec ID                    : A_AC3
    Duration                    : 1 h 31 min
    Bit rate mode               : Constant
    Bit rate                    : 192 kb/s
    Channel(s)                  : 2 channels
    Channel layout              : L R
    Sampling rate               : 48.0 kHz
    Frame rate                  : 31.250 FPS (1536 SPF)
    Compression mode            : Lossy
    Delay relative to video     : 4 ms
    Stream size                 : 126 MiB (0%)
    Title                       : Español Latino [CinemaniaHDD]
    Language                    : Spanish
    Service kind                : Complete Main
    Default                     : Yes
    Forced                      : No

    Audio #2
    ID                          : 3
    ID in the original source m : 4352 (0x1100)
    Format                      : DTS XLL
    Format/Info                 : Digital Theater Systems
    Commercial name             : DTS-HD Master Audio
    Codec ID                    : A_DTS
    Duration                    : 1 h 31 min
    Bit rate mode               : Variable
    Bit rate                    : 4 292 kb/s
    Channel(s)                  : 6 channels
    Channel layout              : C L R Ls Rs LFE
    Sampling rate               : 48.0 kHz
    Frame rate                  : 93.750 FPS (512 SPF)
    Bit depth                   : 24 bits
    Compression mode            : Lossless
    Stream size                 : 2.75 GiB (11%)
    Title                       : Ingles [CinemaniaHDD]
    Language                    : English
    Default                     : No
    Forced                      : No
    Original source medium      : Blu-ray

    Text #1
    ID                          : 4
    Format                      : PGS
    Muxing mode                 : zlib
    Codec ID                    : S_HDMV/PGS
    Codec ID/Info               : Picture based subtitle format used on BDs/HD-DVDs
    Duration                    : 1 h 28 min
    Bit rate                    : 21.0 kb/s
    Count of elements           : 1450
    Stream size                 : 13.3 MiB (0%)
    Title                       : Español-PGS [CinemaniaHDD]
    Language                    : Spanish
    Default                     : No
    Forced                      : No

    Text #2
    ID                          : 5
    ID in the original source m : 4608 (0x1200)
    Format                      : PGS
    Muxing mode                 : zlib
    Codec ID                    : S_HDMV/PGS
    Codec ID/Info               : Picture based subtitle format used on BDs/HD-DVDs
    Duration                    : 1 h 27 min
    Bit rate                    : 69.9 kb/s
    Count of elements           : 3316
    Stream size                 : 43.7 MiB (0%)
    Title                       : Ingles-PGS [CinemaniaHDD]
    Language                    : English
    Default                     : No
    Forced                      : No
    Original source medium      : Blu-ray

    Text #3
    ID                          : 6
    Format                      : UTF-8
    Codec ID                    : S_TEXT/UTF8
    Codec ID/Info               : UTF-8 Plain Text
    Duration                    : 1 h 9 min
    Bit rate                    : 0 b/s
    Count of elements           : 4
    Stream size                 : 145 Bytes (0%)
    Title                       : Forzados-SRT [CinemaniaHDD]
    Language                    : Spanish
    Default                     : Yes
    Forced                      : No

    Text #4
    ID                          : 7
    Format                      : UTF-8
    Codec ID                    : S_TEXT/UTF8
    Codec ID/Info               : UTF-8 Plain Text
    Duration                    : 1 h 24 min
    Bit rate                    : 42 b/s
    Count of elements           : 724
    Stream size                 : 25.9 KiB (0%)
    Title                       : Español-SRT [CinemaniaHDD]
    Language                    : Spanish
    Default                     : No
    Forced                      : No

    Menu
    00:00:00.000                : en:Chapter 01
    00:09:37.500                : en:Chapter 02
    00:16:28.458                : en:Chapter 03
    00:23:23.083                : en:Chapter 04
    00:31:09.000                : en:Chapter 05
    00:38:50.583                : en:Chapter 06
    00:45:21.416                : en:Chapter 07
    00:51:38.791                : en:Chapter 08
    00:58:46.458                : en:Chapter 09
    01:08:46.541                : en:Chapter 10
    01:15:17.125                : en:Chapter 11
    01:21:23.625                : en:Chapter 12

  • Peso: 25.1 GiB

Sinopsis

Descargar Viernes 13 Parte X: Jason X (2001) REMUX 1080p Latino. En el año 2455, Old Earth es ahora un planeta contaminado abandonado por siglos – un mundo marrón de violentas tormentas, tierras tóxicas y mares venenosos. Sin embargo, los humanos han vuelto al lugar mortal que una vez huyeron, no a vivir, sino a investigar los artefactos antiguos y oxidados de las civilizaciones desaparecidas hace tiempo. Pero no es el ambiente dañino el que podría resultar fatal para los intrépidos, jóvenes exploradores que acaban de aterrizar en la Vieja Tierra. Para ellos, es viernes 13, y Jason vive!

Ficha técnica

Video trailer de la película

Enlaces de descarga

Rip de Bluray

Descargar Viernes 13 Parte X: Jason X (2001) REMUX 1080p Latino




Aportes de DPeliculasHDmega la pass es:dpeliculashdmega.org Aportes de CinemaniaHD la pass es:cinemaniahdd.com
Guardado en : Ciencia ficción , Remux , Terror

Películas relacionadas

  • Borrego: Sal Del Camino (2022) REMUX 1080p Latino

    Borrego: Sal Del Camino (2022) REMUX 1080p Latino

    2022
    Borrego: Sal Del Camino (2022) REMUX 1080p Latino

    1h 42m 2022

    Descargar Borrego: Sal Del Camino (2022) REMUX 1080p Latino. Una joven botánica se traslada a un pequeño...

    Director: Jesse Harris

    Género: Crimen

    Actores: Olivia Trujillo

  • Poltergeist (1982) REMUX 1080p Latino – CMHDD

    Poltergeist (1982) REMUX 1080p Latino – CMHDD

    1982
    Poltergeist (1982) REMUX 1080p Latino – CMHDD

    1h 54m 1982

    Una familia americana de clase media se traslada a vivir e una nueva casa en un aparentemente idílico...

    Director: Tobe Hooper

    Género: Terror

    Actores: Zelda Rubinstein

  • Poltergeist (1982) REMUX 4K Latino – CMHDD

    Poltergeist (1982) REMUX 4K Latino – CMHDD

    1982
    Poltergeist (1982) REMUX 4K Latino – CMHDD

    1h 54m 1982

    Una familia americana de clase media se traslada a vivir e una nueva casa en un aparentemente idílico...

    Director: Tobe Hooper

    Género: Terror

    Actores: Zelda Rubinstein

  • La familia Monster (2022) REMUX 1080p Latino

    La familia Monster (2022) REMUX 1080p Latino

    2022
    La familia Monster (2022) REMUX 1080p Latino

    1h 49m 2022

    Descargar La familia Monster (2022) REMUX 1080p Latino. Reboot de "The Munsters", que sigue las desventuras...

    Director: Rob Zombie

    Género: Comedia

    Actores: Tomas Boykin

descargar Viernes 13 Parte X: Jason X (2001) REMUX 1080p Latino Full 1080p 1080p gratis, Viernes 13 Parte X: Jason X (2001) REMUX 1080p Latino Full 1080p mega 1 link, Viernes 13 Parte X: Jason X (2001) REMUX 1080p Latino Full 1080p pelicula completa, descargar Viernes 13 Parte X: Jason X (2001) REMUX 1080p Latino Full 1080p gratis en mega.

Viernes 13 Parte X: Jason X (2001) REMUX 1080p Latino pelicula full hd, Viernes 13 Parte X: Jason X (2001) REMUX 1080p Latino mega latino, Viernes 13 Parte X: Jason X (2001) REMUX 1080p Latino 4k latino, Viernes 13 Parte X: Jason X (2001) REMUX 1080p Latino pelicula completa, Viernes 13 Parte X: Jason X (2001) REMUX 1080p Latino descargar gratis, descargar Viernes 13 Parte X: Jason X (2001) REMUX 1080p Latino pelicula latino, Viernes 13 Parte X: Jason X (2001) REMUX 1080p Latino 1 link mega, Viernes 13 Parte X: Jason X (2001) REMUX 1080p Latino 1 link google drive, Viernes 13 Parte X: Jason X (2001) REMUX 1080p Latino hd 1080p latino.
Comentarios 0