Viernes 13 Parte X: Jason X (2001) Full HD 1080p Latino

3.133 vistas
1 estrella2 estrellas3 estrellas4 estrellas5 estrellas (3 votos, promedio: 3,67 de 5)
Cargando...

Información de Viernes 13 Parte X: Jason X (2001) Full HD 1080p Latino

Datos de la película

  • Calidad: Full 1080p
  • Audio: Español Latino AC3 2.0 BLURAY - Ingles DTS 5.1 BLURAY
  • Subtitulos: Español Latino PGS - Ingles PGS
  • Resolución: 1920x1080p
  • Formato: MKV
  • Codec: H.264
  • Encoder: CinefiloCool
  • Mediainfo: Clic para Mostrar Datos Ver
  • Viernes 13 Pt. X Jason X (2001) Full HD 1080p Latino-CMHDD.mkv
    Format                      : Matroska
    Format version              : Version 4
    File size                   : 5.86 GiB
    Duration                    : 1 h 31 min
    Overall bit rate            : 9 142 kb/s
    Movie name                  : Friday The 13th Part X - Jason X (2001) CinemaniaHDD.Net
    Encoded date                : UTC 2020-10-29 03:55:11
    Writing application         : mkvmerge v51.0.0 ('I Wish') 64-bit
    Writing library             : libebml v1.4.0 + libmatroska v1.6.2
    Attachments                 : CINEMANIAHD.png

    Video
    ID                          : 1
    Format                      : AVC
    Format/Info                 : Advanced Video Codec
    Format profile              : High@L4.1
    Format settings             : CABAC / 4 Ref Frames
    Format settings, CABAC      : Yes
    Format settings, Reference  : 4 frames
    Codec ID                    : V_MPEG4/ISO/AVC
    Duration                    : 1 h 31 min
    Bit rate                    : 7 387 kb/s
    Width                       : 1 920 pixels
    Height                      : 1 080 pixels
    Display aspect ratio        : 16:9
    Frame rate mode             : Constant
    Frame rate                  : 24.000 FPS
    Color space                 : YUV
    Chroma subsampling          : 4:2:0
    Bit depth                   : 8 bits
    Scan type                   : Progressive
    Bits/(Pixel*Frame)          : 0.148
    Stream size                 : 4.73 GiB (81%)
    Title                       : Full HD1080p [CinemaniaHDD]
    Writing library             : x264 core 157 r2935 545de2f
    Encoding settings           : cabac=1 / ref=4 / deblock=1:0:0 / analyse=0x3:0x133 / me=esa / subme=10 / psy=1 / psy_rd=1.00:0.00 / mixed_ref=1 / me_range=24 / chroma_me=1 / trellis=2 / 8x8dct=1 / cqm=0 / deadzone=21,11 / fast_pskip=1 / chroma_qp_offset=-2 / threads=24 / lookahead_threads=4 / sliced_threads=0 / nr=0 / decimate=1 / interlaced=0 / bluray_compat=0 / constrained_intra=0 / bframes=8 / b_pyramid=2 / b_adapt=2 / b_bias=0 / direct=3 / weightb=1 / open_gop=0 / weightp=2 / keyint=240 / keyint_min=24 / scenecut=40 / intra_refresh=0 / rc_lookahead=60 / rc=crf / mbtree=1 / crf=20.0 / qcomp=0.60 / qpmin=0 / qpmax=69 / qpstep=4 / vbv_maxrate=62500 / vbv_bufsize=78125 / crf_max=0.0 / nal_hrd=none / filler=0 / ip_ratio=1.40 / aq=1:1.00
    Default                     : Yes
    Forced                      : Yes
    Color range                 : Limited
    Color primaries             : BT.709
    Transfer characteristics    : BT.709
    Matrix coefficients         : BT.709

    Audio #1
    ID                          : 2
    Format                      : AC-3
    Format/Info                 : Audio Coding 3
    Commercial name             : Dolby Digital
    Codec ID                    : A_AC3
    Duration                    : 1 h 31 min
    Bit rate mode               : Constant
    Bit rate                    : 192 kb/s
    Channel(s)                  : 2 channels
    Channel layout              : L R
    Sampling rate               : 48.0 kHz
    Frame rate                  : 31.250 FPS (1536 SPF)
    Compression mode            : Lossy
    Delay relative to video     : 4 ms
    Stream size                 : 126 MiB (2%)
    Title                       : Español Latino [CinemaniaHDD]
    Language                    : Spanish
    Service kind                : Complete Main
    Default                     : Yes
    Forced                      : Yes

    Audio #2
    ID                          : 3
    Format                      : DTS
    Format/Info                 : Digital Theater Systems
    Codec ID                    : A_DTS
    Duration                    : 1 h 31 min
    Bit rate mode               : Constant
    Bit rate                    : 1 509 kb/s
    Channel(s)                  : 6 channels
    Channel layout              : C L R Ls Rs LFE
    Sampling rate               : 48.0 kHz
    Frame rate                  : 93.750 FPS (512 SPF)
    Bit depth                   : 24 bits
    Compression mode            : Lossy
    Stream size                 : 990 MiB (17%)
    Title                       : Ingles [CinemaniaHDD]
    Language                    : English
    Default                     : No
    Forced                      : No

    Text #1
    ID                          : 4
    Format                      : PGS
    Muxing mode                 : zlib
    Codec ID                    : S_HDMV/PGS
    Codec ID/Info               : Picture based subtitle format used on BDs/HD-DVDs
    Duration                    : 1 h 28 min
    Bit rate                    : 21.0 kb/s
    Count of elements           : 1450
    Stream size                 : 13.3 MiB (0%)
    Title                       : Español-PGS [CinemaniaHDD]
    Language                    : Spanish
    Default                     : No
    Forced                      : No

    Text #2
    ID                          : 5
    ID in the original source m : 4608 (0x1200)
    Format                      : PGS
    Muxing mode                 : zlib
    Codec ID                    : S_HDMV/PGS
    Codec ID/Info               : Picture based subtitle format used on BDs/HD-DVDs
    Duration                    : 1 h 27 min
    Bit rate                    : 69.9 kb/s
    Count of elements           : 3316
    Stream size                 : 43.7 MiB (1%)
    Title                       : Ingles-PGS [CinemaniaHDD]
    Language                    : English
    Default                     : No
    Forced                      : No
    Original source medium      : Blu-ray

    Text #3
    ID                          : 6
    Format                      : UTF-8
    Codec ID                    : S_TEXT/UTF8
    Codec ID/Info               : UTF-8 Plain Text
    Duration                    : 1 h 9 min
    Bit rate                    : 0 b/s
    Count of elements           : 4
    Stream size                 : 145 Bytes (0%)
    Title                       : Forzados-SRT [CinemaniaHDD]
    Language                    : Spanish
    Default                     : Yes
    Forced                      : Yes

    Text #4
    ID                          : 7
    Format                      : UTF-8
    Codec ID                    : S_TEXT/UTF8
    Codec ID/Info               : UTF-8 Plain Text
    Duration                    : 1 h 24 min
    Bit rate                    : 42 b/s
    Count of elements           : 724
    Stream size                 : 25.9 KiB (0%)
    Title                       : Español-SRT [CinemaniaHDD]
    Language                    : Spanish
    Default                     : No
    Forced                      : No

    Menu
    00:00:00.000                : en:Chapter 01
    00:09:37.500                : en:Chapter 02
    00:16:28.458                : en:Chapter 03
    00:23:23.083                : en:Chapter 04
    00:31:09.000                : en:Chapter 05
    00:38:50.583                : en:Chapter 06
    00:45:21.416                : en:Chapter 07
    00:51:38.791                : en:Chapter 08
    00:58:46.458                : en:Chapter 09
    01:08:46.541                : en:Chapter 10
    01:15:17.125                : en:Chapter 11
    01:21:23.625                : en:Chapter 12

  • Peso: 5.86 GiB

Sinopsis

Descargar Viernes 13 Parte X: Jason X (2001) Full HD 1080p Latino. En el año 2455, Old Earth es ahora un planeta contaminado abandonado por siglos – un mundo marrón de violentas tormentas, tierras tóxicas y mares venenosos. Sin embargo, los humanos han vuelto al lugar mortal que una vez huyeron, no a vivir, sino a investigar los artefactos antiguos y oxidados de las civilizaciones desaparecidas hace tiempo. Pero no es el ambiente dañino el que podría resultar fatal para los intrépidos, jóvenes exploradores que acaban de aterrizar en la Vieja Tierra. Para ellos, es viernes 13, y Jason vive!

RESUBIDO NUEVO RIP!!

Ficha técnica

Video trailer de la película

Enlaces de descarga

Rip de Bluray

Descargar Viernes 13 Parte X: Jason X (2001) Full HD 1080p Latino




Aportes de DPeliculasHDmega la pass es:dpeliculashdmega.org Aportes de CinemaniaHD la pass es:cinemaniahdd.com

Películas relacionadas

Comentarios 6
  • luis - 12 septiembre, 2017

    las 2 ultimas peliculas hasta el cu lo sta la calidad solo pesa 3GB

    • dpelis - 13 septiembre, 2017

      no entendi

  • Byron - 04 mayo, 2017

    Subiran las que faltan? si no estoy mal faltan 2 mas…

    • dpelis - 04 mayo, 2017

      no encontre los bd pero si algun dia encuentro se sube, saludos

    • Aldair Jesus - 08 mayo, 2017

      Faltan el remake de 2009 y Freddy vs Jason.
      Freddy vs Jason la descargue de lo que antes fue cinemania pero el audio en ingles esta mal, es el audio comentario de la pelicula :/

      • dpelis - 08 mayo, 2017

        serias tan amable de dejarme link para ver si la puedo resbuir reparada, Saludos