×

¿Problemas para descargar con Mozilla, EDGE? Deshabilita la opción "Abrir vinculos en una pestaña nueva" tal como lo muestra ésta imagen.

Viernes 13 (2009) UNRATED Killer Cut 1080p Latino

465 vistas

Información de Viernes 13 (2009) UNRATED Killer Cut 1080p Latino

Datos de la película

  • Calidad: 1080p
  • Audio: Se especifica abajo de la Sinopsis
  • Subtitulos: Español Latino SRT - Ingles SRT
  • Resolución: 1920x800p
  • Formato: MKV
  • Codec: H.264
  • Encoder: CinefiloCool
  • Mediainfo: Clic para Mostrar Datos Ver
  • Viernes 13 (2009) EXTENDED Killer Cut 1080p Latino-CMHDD.mkv
    Format                      : Matroska
    Format version              : Version 4
    File size                   : 3.68 GiB
    Duration                    : 1 h 46 min
    Overall bit rate mode       : Variable
    Overall bit rate            : 4 946 kb/s
    Movie name                  : Friday The 13th (2009) CinemaniaHDD.Net
    Encoded date                : UTC 2020-10-30 07:04:48
    Writing application         : mkvmerge v51.0.0 ('I Wish') 64-bit
    Writing library             : libebml v1.4.0 + libmatroska v1.6.2
    Attachments                 : CINEMANIAHD.png

    Video
    ID                          : 1
    Format                      : AVC
    Format/Info                 : Advanced Video Codec
    Format profile              : High@L4
    Format settings             : CABAC / 3 Ref Frames
    Format settings, CABAC      : Yes
    Format settings, Reference  : 3 frames
    Codec ID                    : V_MPEG4/ISO/AVC
    Duration                    : 1 h 45 min
    Bit rate mode               : Variable
    Bit rate                    : 4 096 kb/s
    Width                       : 1 920 pixels
    Height                      : 800 pixels
    Display aspect ratio        : 2.40:1
    Frame rate mode             : Constant
    Frame rate                  : 23.976 (24000/1001) FPS
    Color space                 : YUV
    Chroma subsampling          : 4:2:0
    Bit depth                   : 8 bits
    Scan type                   : Progressive
    Bits/(Pixel*Frame)          : 0.111
    Stream size                 : 3.02 GiB (82%)
    Title                       : HD1080p [CinemaniaHDD]
    Writing library             : x264 core 142 r2479 dd79a61
    Encoding settings           : cabac=1 / ref=3 / deblock=1:0:0 / analyse=0x3:0x113 / me=hex / subme=7 / psy=1 / psy_rd=1.00:0.00 / mixed_ref=1 / me_range=16 / chroma_me=1 / trellis=1 / 8x8dct=1 / cqm=0 / deadzone=21,11 / fast_pskip=1 / chroma_qp_offset=-2 / threads=6 / lookahead_threads=1 / sliced_threads=0 / nr=0 / decimate=1 / interlaced=0 / bluray_compat=0 / constrained_intra=0 / bframes=3 / b_pyramid=0 / b_adapt=1 / b_bias=0 / direct=1 / weightb=1 / open_gop=0 / weightp=2 / keyint=240 / keyint_min=24 / scenecut=40 / intra_refresh=0 / rc_lookahead=40 / rc=2pass / mbtree=1 / bitrate=4096 / ratetol=1.0 / qcomp=0.60 / qpmin=0 / qpmax=69 / qpstep=4 / cplxblur=20.0 / qblur=0.5 / vbv_maxrate=25000 / vbv_bufsize=25000 / nal_hrd=vbr / filler=0 / ip_ratio=1.40 / aq=1:1.00
    Default                     : Yes
    Forced                      : No

    Audio #1
    ID                          : 2
    Format                      : AC-3
    Format/Info                 : Audio Coding 3
    Commercial name             : Dolby Digital
    Codec ID                    : A_AC3
    Duration                    : 1 h 45 min
    Bit rate mode               : Constant
    Bit rate                    : 256 kb/s
    Channel(s)                  : 2 channels
    Channel layout              : L R
    Sampling rate               : 48.0 kHz
    Frame rate                  : 31.250 FPS (1536 SPF)
    Compression mode            : Lossy
    Stream size                 : 193 MiB (5%)
    Title                       : Español Latino [CinemaniaHDD]
    Language                    : Spanish
    Service kind                : Complete Main
    Default                     : Yes
    Forced                      : Yes

    Audio #2
    ID                          : 3
    Format                      : AC-3
    Format/Info                 : Audio Coding 3
    Commercial name             : Dolby Digital
    Codec ID                    : A_AC3
    Duration                    : 1 h 45 min
    Bit rate mode               : Constant
    Bit rate                    : 640 kb/s
    Channel(s)                  : 6 channels
    Channel layout              : L R C LFE Ls Rs
    Sampling rate               : 48.0 kHz
    Frame rate                  : 31.250 FPS (1536 SPF)
    Compression mode            : Lossy
    Stream size                 : 483 MiB (13%)
    Title                       : Ingles [CinemaniaHDD]
    Language                    : English
    Service kind                : Complete Main
    Default                     : No
    Forced                      : No

    Text #1
    ID                          : 4
    Format                      : UTF-8
    Codec ID                    : S_TEXT/UTF8
    Codec ID/Info               : UTF-8 Plain Text
    Duration                    : 1 h 8 min
    Bit rate                    : 1 b/s
    Count of elements           : 25
    Stream size                 : 665 Bytes (0%)
    Title                       : Forzados-SRT [CinemaniaHDD]
    Language                    : Spanish
    Default                     : Yes
    Forced                      : Yes

    Text #2
    ID                          : 5
    Format                      : UTF-8
    Codec ID                    : S_TEXT/UTF8
    Codec ID/Info               : UTF-8 Plain Text
    Duration                    : 1 h 36 min
    Bit rate                    : 35 b/s
    Count of elements           : 890
    Stream size                 : 25.1 KiB (0%)
    Title                       : Español-SRT [CinemaniaHDD]
    Language                    : Spanish
    Default                     : No
    Forced                      : No

    Text #3
    ID                          : 6
    Format                      : UTF-8
    Codec ID                    : S_TEXT/UTF8
    Codec ID/Info               : UTF-8 Plain Text
    Duration                    : 1 h 46 min
    Bit rate                    : 37 b/s
    Count of elements           : 975
    Stream size                 : 29.3 KiB (0%)
    Title                       : Ingles-SRT [CinemaniaHDD]
    Language                    : English
    Default                     : No
    Forced                      : No

    Menu
    00:00:00.000                : en:Chapter 01
    00:03:34.881                : en:Chapter 02
    00:08:20.583                : en:Chapter 03
    00:12:16.193                : en:Chapter 04
    00:15:27.843                : en:Chapter 05
    00:19:46.685                : en:Chapter 06
    00:23:50.470                : en:Chapter 07
    00:28:49.978                : en:Chapter 08
    00:32:41.209                : en:Chapter 09
    00:37:18.736                : en:Chapter 10
    00:39:38.042                : en:Chapter 11
    00:43:32.860                : en:Chapter 12
    00:49:36.806                : en:Chapter 13
    00:53:53.230                : en:Chapter 14
    01:01:01.991                : en:Chapter 15
    01:04:50.052                : en:Chapter 16
    01:08:27.561                : en:Chapter 17
    01:11:03.050                : en:Chapter 18
    01:16:08.814                : en:Chapter 19
    01:19:39.024                : en:Chapter 20
    01:22:19.309                : en:Chapter 21
    01:24:50.710                : en:Chapter 22
    01:29:54.305                : en:Chapter 23
    01:33:36.861                : en:Chapter 24
    01:37:45.526                : en:Chapter 25
    01:39:48.983                : en:Chapter 26
    01:45:29.364                : en:Chapter 27

  • Peso: 3.68 GiB

Sinopsis

Descargar Viernes 13 (2009) UNRATED Killer Cut 1080p Latino. Remake del clásico film de terror, dirigido en 1980 por Sean S. Cunningham. Buscando a su hermana desaparecida, Clay se dirige al espeluznante bosque del legendario Crystal Lake, donde tropieza con los viejos y decrépitos restos de una cabaña que yace detrás de unos árboles cubiertos por denso musgo. Y esto no es lo único que se esconde entre la maleza… En contra del consejo de la policía y las advertencias de los habitantes de la zona, Clay continúa con su búsqueda, ayudado por una joven mujer que ha conocido entre un grupo de jóvenes estudiantes preparados para pasar un emocionante fin de semana. Sin embargo, ellos están a punto de encontrar algo más que no habían tenido en cuenta. Lo que menos se imaginan es que han entrado en el dominio de uno de los más terroríficos espectros de la historia del cine americano: el infame asesino que caza en Crystal Lake armado con una sierra eléctrica.

Audio Español Latino Editado Con Partes en Ingles AC3 2.0 – Ingles AC3 5.1 Bluray

Ficha técnica

  • Titulo original: Friday the 13th
  • Fecha de lanzamiento: 11-02-2009 (United States of America)
  • Director: Marcus Nispel
  • Género: HD 1080p, Terror

Video trailer de la película

Enlaces de descarga

Rip de Bluray

Descargar Viernes 13 (2009) UNRATED Killer Cut 1080p Latino




Aportes de DPeliculasHDmega la pass es:dpeliculashdmega.org Aportes de CinemaniaHD la pass es:cinemaniahdd.com
Guardado en : HD 1080p , Terror

Películas relacionadas

  • Zola (2020) HD 1080p Latino

    Zola (2020) HD 1080p Latino

    2020
    Zola (2020) HD 1080p Latino

    1h 26m 2020

    Descargar Zola (2020) HD 1080p Latino. Una camarera accede a acompañar a una bailarina exótica, su...

    Director: Sheri Davani

    Género: Comedia

    Actores: Ts Madison

  • Hocus Pocus: Abracadabra (1993) 1080p Latino

    Hocus Pocus: Abracadabra (1993) 1080p Latino

    1993
    Hocus Pocus: Abracadabra (1993) 1080p Latino

    1h 36m 1993

    Descargar Hocus Pocus: Abracadabra (1993) 1080p Latino. Tres brujas del siglo XII son invocadas durante...

    Director: Kenny Ortega

    Género: Comedia

    Actores: Vinessa Shaw

  • Hocus Pocus: Abracadabra (1993) REMUX 1080p Latino

    Hocus Pocus: Abracadabra (1993) REMUX 1080p Latino

    1993
    Hocus Pocus: Abracadabra (1993) REMUX 1080p Latino

    1h 36m 1993

    Descargar Hocus Pocus: Abracadabra (1993) REMUX 1080p Latino. Tres brujas del siglo XII son invocadas...

    Director: Kenny Ortega

    Género: Comedia

    Actores: Vinessa Shaw

descargar Viernes 13 (2009) UNRATED Killer Cut 1080p Latino 1080p 1080p gratis, Viernes 13 (2009) UNRATED Killer Cut 1080p Latino 1080p mega 1 link, Viernes 13 (2009) UNRATED Killer Cut 1080p Latino 1080p pelicula completa, descargar Viernes 13 (2009) UNRATED Killer Cut 1080p Latino 1080p gratis en mega.

Viernes 13 (2009) UNRATED Killer Cut 1080p Latino pelicula full hd, Viernes 13 (2009) UNRATED Killer Cut 1080p Latino mega latino, Viernes 13 (2009) UNRATED Killer Cut 1080p Latino 4k latino, Viernes 13 (2009) UNRATED Killer Cut 1080p Latino pelicula completa, Viernes 13 (2009) UNRATED Killer Cut 1080p Latino descargar gratis, descargar Viernes 13 (2009) UNRATED Killer Cut 1080p Latino pelicula latino, Viernes 13 (2009) UNRATED Killer Cut 1080p Latino 1 link mega, Viernes 13 (2009) UNRATED Killer Cut 1080p Latino 1 link google drive, Viernes 13 (2009) UNRATED Killer Cut 1080p Latino hd 1080p latino.
Comentarios 0