Viernes 13 Parte I (1980) UNRATED Full HD 1080p Latino

2.547 vistas
1 estrella2 estrellas3 estrellas4 estrellas5 estrellas (2 votos, promedio: 5,00 de 5)
Cargando...

Información de Viernes 13 Parte I (1980) UNRATED Full HD 1080p Latino

Datos de la película

  • Calidad: Full 1080p
  • Audio: Español Latino AC3 2.0 BLURAY - Ingles DTS 5.1 BLURAY
  • Subtitulos: Español Latino PGS - Ingles PGS
  • Resolución: 1920x1080p
  • Formato: MKV
  • Codec: H.264
  • Encoder: CinefiloCool
  • Mediainfo: Clic para Mostrar Datos Ver
  • Viernes 13 Pt. I (1980) Unrated Full HD 1080p Latino-CMHDD.mkv
    Format                      : Matroska
    Format version              : Version 4
    File size                   : 13.5 GiB
    Duration                    : 1 h 35 min
    Overall bit rate            : 20.2 Mb/s
    Movie name                  : Friday The 13th (1980) CinemaniaHDD.Net
    Encoded date                : UTC 2020-10-27 05:52:41
    Writing application         : mkvmerge v51.0.0 ('I Wish') 64-bit
    Writing library             : libebml v1.4.0 + libmatroska v1.6.2
    Attachments                 : CINEMANIAHD.png

    Video
    ID                          : 1
    Format                      : AVC
    Format/Info                 : Advanced Video Codec
    Format profile              : High@L4.1
    Format settings             : CABAC / 4 Ref Frames
    Format settings, CABAC      : Yes
    Format settings, Reference  : 4 frames
    Codec ID                    : V_MPEG4/ISO/AVC
    Duration                    : 1 h 35 min
    Bit rate                    : 18.5 Mb/s
    Width                       : 1 920 pixels
    Height                      : 1 080 pixels
    Display aspect ratio        : 16:9
    Frame rate mode             : Constant
    Frame rate                  : 23.976 (24000/1001) FPS
    Color space                 : YUV
    Chroma subsampling          : 4:2:0
    Bit depth                   : 8 bits
    Scan type                   : Progressive
    Bits/(Pixel*Frame)          : 0.372
    Stream size                 : 12.3 GiB (91%)
    Title                       : Full HD1080p [CinemaniaHDD]
    Writing library             : x264 core 157 r2935 545de2f
    Encoding settings           : cabac=1 / ref=4 / deblock=1:0:0 / analyse=0x3:0x133 / me=tesa / subme=11 / psy=1 / psy_rd=1.00:0.00 / mixed_ref=1 / me_range=24 / chroma_me=1 / trellis=2 / 8x8dct=1 / cqm=0 / deadzone=21,11 / fast_pskip=0 / chroma_qp_offset=-2 / threads=24 / lookahead_threads=6 / sliced_threads=0 / nr=0 / decimate=1 / interlaced=0 / bluray_compat=0 / constrained_intra=0 / bframes=16 / b_pyramid=2 / b_adapt=2 / b_bias=0 / direct=3 / weightb=1 / open_gop=0 / weightp=2 / keyint=240 / keyint_min=24 / scenecut=40 / intra_refresh=0 / rc_lookahead=60 / rc=crf / mbtree=1 / crf=20.0 / qcomp=0.60 / qpmin=0 / qpmax=69 / qpstep=4 / vbv_maxrate=62500 / vbv_bufsize=78125 / crf_max=0.0 / nal_hrd=none / filler=0 / ip_ratio=1.40 / aq=1:1.00
    Default                     : Yes
    Forced                      : Yes
    Color range                 : Limited
    Color primaries             : BT.709
    Transfer characteristics    : BT.709
    Matrix coefficients         : BT.709

    Audio #1
    ID                          : 2
    Format                      : AC-3
    Format/Info                 : Audio Coding 3
    Commercial name             : Dolby Digital
    Codec ID                    : A_AC3
    Duration                    : 1 h 35 min
    Bit rate mode               : Constant
    Bit rate                    : 224 kb/s
    Channel(s)                  : 2 channels
    Channel layout              : L R
    Sampling rate               : 48.0 kHz
    Frame rate                  : 31.250 FPS (1536 SPF)
    Compression mode            : Lossy
    Delay relative to video     : 14 ms
    Stream size                 : 153 MiB (1%)
    Title                       : Español Latino [CinemaniaHDD]
    Language                    : Spanish
    Service kind                : Complete Main
    Default                     : Yes
    Forced                      : Yes

    Audio #2
    ID                          : 3
    Format                      : DTS
    Format/Info                 : Digital Theater Systems
    Codec ID                    : A_DTS
    Duration                    : 1 h 35 min
    Bit rate mode               : Constant
    Bit rate                    : 1 509 kb/s
    Channel(s)                  : 6 channels
    Channel layout              : C L R Ls Rs LFE
    Sampling rate               : 48.0 kHz
    Frame rate                  : 93.750 FPS (512 SPF)
    Bit depth                   : 24 bits
    Compression mode            : Lossy
    Stream size                 : 1.01 GiB (7%)
    Title                       : Ingles [CinemaniaHDD]
    Language                    : English
    Default                     : No
    Forced                      : No

    Text #1
    ID                          : 4
    Format                      : PGS
    Muxing mode                 : zlib
    Codec ID                    : S_HDMV/PGS
    Codec ID/Info               : Picture based subtitle format used on BDs/HD-DVDs
    Duration                    : 1 h 31 min
    Bit rate                    : 18.7 kb/s
    Count of elements           : 1186
    Stream size                 : 12.3 MiB (0%)
    Title                       : Español-PGS [CinemaniaHDD]
    Language                    : Spanish
    Default                     : No
    Forced                      : No

    Text #2
    ID                          : 5
    ID in the original source m : 4608 (0x1200)
    Format                      : PGS
    Muxing mode                 : zlib
    Codec ID                    : S_HDMV/PGS
    Codec ID/Info               : Picture based subtitle format used on BDs/HD-DVDs
    Duration                    : 1 h 32 min
    Bit rate                    : 27.7 kb/s
    Count of elements           : 1789
    Stream size                 : 18.3 MiB (0%)
    Title                       : Ingles-PGS [CinemaniaHDD]
    Language                    : English
    Default                     : No
    Forced                      : No
    Original source medium      : Blu-ray

    Text #3
    ID                          : 6
    Format                      : UTF-8
    Codec ID                    : S_TEXT/UTF8
    Codec ID/Info               : UTF-8 Plain Text
    Duration                    : 59 min 12 s
    Bit rate                    : 0 b/s
    Count of elements           : 6
    Stream size                 : 165 Bytes (0%)
    Title                       : Forzados-SRT [CinemaniaHDD]
    Language                    : Spanish
    Default                     : Yes
    Forced                      : Yes

    Text #4
    ID                          : 7
    Format                      : UTF-8
    Codec ID                    : S_TEXT/UTF8
    Codec ID/Info               : UTF-8 Plain Text
    Duration                    : 1 h 31 min
    Bit rate                    : 29 b/s
    Count of elements           : 581
    Stream size                 : 20.0 KiB (0%)
    Title                       : Español-SRT [CinemaniaHDD]
    Language                    : Spanish
    Default                     : No
    Forced                      : No

    Menu
    00:00:00.000                : en:Chapter 01
    00:06:24.342                : en:Chapter 02
    00:13:34.271                : en:Chapter 03
    00:22:29.264                : en:Chapter 04
    00:31:38.062                : en:Chapter 05
    00:40:23.671                : en:Chapter 06
    00:48:11.096                : en:Chapter 07
    00:57:10.969                : en:Chapter 08
    01:04:42.044                : en:Chapter 09
    01:11:19.525                : en:Chapter 10
    01:22:32.530                : en:Chapter 11
    01:32:45.601                : en:Chapter 12

  • Peso: 13.5 GB

Sinopsis

Descargar Viernes 13 Parte I (1980) UNRATED Full HD 1080p Latino. Después de que ocurriera un espantoso doble homicidio en Camp Crystal Lake en la década de 1950, la instalación fue cerrada. Veinte años después, Steve Christy quiere que el campamento vuelva a funcionar. Por eso, contrariamente a las advertencias de los lugareños, invitó a un grupo de jóvenes durante la temporada de verano a preparar el campamento de vacaciones con él. De hecho, el pintoresco idilio del lago es engañoso: la joven Annie conoce a un asesino desconocido incluso antes de su llegada. Y el asesino también está detrás de los otros adolescentes. Alice Hardy, su novio Bill, Brenda, Marcie y Jack Burrell están a punto de afrontar una noche de horror.

RESUBIDO NUEVO RIP !!

Ficha técnica

Video trailer de la película

Enlaces de descarga

Rip de Bluray

Descargar Viernes 13 Parte I (1980) UNRATED Full HD 1080p Latino




Aportes de DPeliculasHDmega la pass es:dpeliculashdmega.org Aportes de CinemaniaHD la pass es:cinemaniahdd.com

Películas relacionadas

Comentarios 12
  • Ruddy Yankee - 29 octubre, 2020

    Un Mill´0000on de Gracias

  • Fernando Israel - 08 julio, 2020

    Podrían resubir esta película, por favor. Ningún enlace está activo.

    • Dracarys - 09 julio, 2020

      este aporte esta perdido

  • Cesarín - 25 septiembre, 2017

    ¡Hola! Podrían poner los subltítulos en SRT aparte? Ya que mi TV no los reconoce adheridos a la peli.
    Gracias, saludos 🙂

  • Ragnarok - 31 agosto, 2017

    Disculpen que diferencias tienen estas pelis de viernes 13 a las anteriores que habian publicado ?, se corrigio algo?, o traen alguna mejora?….. saludos

    • dpelis - 03 septiembre, 2017

      eliminado audio ingles de comentarios y agregado audio ingles de la pelicula

  • luis - 31 agosto, 2017

    oe viejito ultimamente estas poniendo muchas sagas y encima de terror puro gore algo de aventura ps como la de NAUFRAGO

  • Marco - 31 agosto, 2017

    una pregunta y nunca me responden porque estan resubiendo peliculas como viernes 13 o saw ??????

    • dpelis - 03 septiembre, 2017

      viernes los audios ingles eran comentarios. saw 2 y 3 tenia desafe latino en unas partes

  • Byron - 12 mayo, 2017

    Amigos, desde ayer me andan ignorando mis comentarios, tengo un problema con esta peli, la parte 4 no esta subida, en los links de mega solo subieron 5 partes de 6 y en los de uptobox la parte 3 esta repetida, favor arreglar eso gracias.

    • dpelis - 13 mayo, 2017

      stimado. sino he respondido porque los respondere cuando este resuelto y estoy trabajando en ello. saludos