×

¿Problemas para descargar con Mozilla, EDGE? Deshabilita la opción "Abrir vinculos en una pestaña nueva" tal como lo muestra ésta imagen.

Freud (2020) Primera Temporada WEB-DL [NF] 1080p Latino – CMHDD

228 vistas

Información de Freud (2020) Primera Temporada WEB-DL [NF] 1080p Latino – CMHDD

Datos de la película

  • Calidad: WEBDL
  • Audio: Se especifica abajo de la Sinopsis
  • Subtitulos: Español Latino SRT- FORZADOS SRT
  • Resolución: 1920x1080p
  • Formato: MKV
  • Codec: H.264
  • Encoder: Dracarys
  • Mediainfo: Clic para Mostrar Datos Ver
  • Format                      : Matroska
    Format version              : Version 4
    File size                   : 1.26 GiB
    Duration                    : 57 min 38 s
    Overall bit rate mode       : Variable
    Overall bit rate            : 3 134 kb/s
    Movie name                  : Freud (2020) [S01E01] WEB-DL 1080p Latino - CMHDD
    Encoded date                : UTC 2020-07-06 23:27:05
    Writing application         : mkvmerge v46.0.0 ('No Deeper Escape') 64-bit
    Writing library             : libebml v1.3.10 + libmatroska v1.5.2

    Video
    ID                          : 1
    Format                      : AVC
    Format/Info                 : Advanced Video Codec
    Format profile              : Main@L4
    Format settings             : CABAC / 3 Ref Frames
    Format settings, CABAC      : Yes
    Format settings, Reference  : 3 frames
    Codec ID                    : V_MPEG4/ISO/AVC
    Duration                    : 57 min 38 s
    Bit rate mode               : Variable
    Bit rate                    : 1 870 kb/s
    Maximum bit rate            : 2 805 kb/s
    Width                       : 1 920 pixels
    Height                      : 1 080 pixels
    Display aspect ratio        : 16:9
    Frame rate mode             : Constant
    Frame rate                  : 25.000 FPS
    Color space                 : YUV
    Chroma subsampling          : 4:2:0
    Bit depth                   : 8 bits
    Scan type                   : Progressive
    Bits/(Pixel*Frame)          : 0.036
    Stream size                 : 764 MiB (59%)
    Writing library             : x264 core 148 r2717 0d2410d
    Encoding settings           : cabac=1 / ref=3 / deblock=1:0:0 / analyse=0x1:0x111 / me=umh / subme=10 / psy=1 / psy_rd=1.00:0.00 / mixed_ref=1 / me_range=24 / chroma_me=1 / trellis=2 / 8x8dct=0 / cqm=0 / deadzone=21,11 / fast_pskip=1 / chroma_qp_offset=-2 / threads=8 / lookahead_threads=1 / sliced_threads=0 / nr=0 / decimate=1 / interlaced=0 / bluray_compat=0 / stitchable=1 / constrained_intra=0 / bframes=2 / b_pyramid=0 / b_adapt=2 / b_bias=0 / direct=3 / weightb=1 / open_gop=0 / weightp=2 / keyint=250 / keyint_min=25 / scenecut=0 / intra_refresh=0 / rc_lookahead=50 / rc=2pass / mbtree=1 / bitrate=1870 / ratetol=1.0 / qcomp=0.50 / qpmin=6 / qpmax=51 / qpstep=4 / cplxblur=20.0 / qblur=0.5 / vbv_maxrate=2805 / vbv_bufsize=3740 / nal_hrd=vbr / filler=0 / ip_ratio=1.40 / aq=1:1.00
    Default                     : Yes
    Forced                      : No

    Audio #1
    ID                          : 2
    Format                      : E-AC-3
    Format/Info                 : Enhanced AC-3
    Commercial name             : Dolby Digital Plus
    Codec ID                    : A_EAC3
    Duration                    : 57 min 38 s
    Bit rate mode               : Constant
    Bit rate                    : 640 kb/s
    Channel(s)                  : 6 channels
    Channel layout              : L R C LFE Ls Rs
    Sampling rate               : 48.0 kHz
    Frame rate                  : 31.250 FPS (1536 SPF)
    Compression mode            : Lossy
    Stream size                 : 264 MiB (20%)
    Language                    : Spanish
    Service kind                : Complete Main
    Default                     : Yes
    Forced                      : No

    Audio #2
    ID                          : 3
    Format                      : E-AC-3
    Format/Info                 : Enhanced AC-3
    Commercial name             : Dolby Digital Plus
    Codec ID                    : A_EAC3
    Duration                    : 57 min 38 s
    Bit rate mode               : Constant
    Bit rate                    : 640 kb/s
    Channel(s)                  : 6 channels
    Channel layout              : L R C LFE Ls Rs
    Sampling rate               : 48.0 kHz
    Frame rate                  : 31.250 FPS (1536 SPF)
    Compression mode            : Lossy
    Stream size                 : 264 MiB (20%)
    Language                    : German
    Service kind                : Complete Main
    Default                     : No
    Forced                      : No

    Text #1
    ID                          : 4
    Format                      : UTF-8
    Codec ID                    : S_TEXT/UTF8
    Codec ID/Info               : UTF-8 Plain Text
    Duration                    : 56 min 48 s
    Bit rate                    : 1 b/s
    Count of elements           : 33
    Stream size                 : 717 Bytes (0%)
    Title                       : Forzados
    Language                    : Spanish
    Default                     : Yes
    Forced                      : Yes

    Text #2
    ID                          : 5
    Format                      : UTF-8
    Codec ID                    : S_TEXT/UTF8
    Codec ID/Info               : UTF-8 Plain Text
    Duration                    : 56 min 48 s
    Bit rate                    : 37 b/s
    Count of elements           : 589
    Stream size                 : 15.7 KiB (0%)
    Language                    : Spanish
    Default                     : No
    Forced                      : No

  • Peso: 12.1 GiB1

Sinopsis

Freud es una serie de suspense que sigue la historia imaginativa del joven psicoanalista, Sigmund Freud, que se asocia con un médium (Fleur Salomé) y un inspector de policía (Kiss). Mediante sus técnicas innovadoras, Fred y sus dos socios intentan buscar a un asesino en serie. Ambientada en la Viena del siglo XIX, Freud tiene que enfrentarse a las críticas que reciben sus teorías sobre el subconsciente humano y la sexualidad.

Este drama criminal tiene como productores ejecutivos a Heinrich Ambrosch (Mi tierra) y Moritz Polter (Spotless). En cuanto al guion se encargan Marvin Kren (Tatort), Stefan Brunner (Blackstory) y Benjamin Hessler (4 Blocks). Es una producción de Netflix junto a Satel Film y ORF.

 

 

Latino: E-AC3 5.1 NETFLIX  –  Alemán E-AC3 5.1 NETFLIX

Ficha técnica

Video trailer de la película

Enlaces de descarga

Rip de Bluray

Descargar Freud (2020) Primera Temporada WEB-DL [NF] 1080p Latino – CMHDD




Aportes de DPeliculasHDmega la pass es:dpeliculashdmega.org Aportes de CinemaniaHD la pass es:cinemaniahdd.com
Guardado en : Crimen , Drama , Misterio

Películas relacionadas

descargar Freud (2020) Primera Temporada WEB-DL [NF] 1080p Latino – CMHDD WEBDL 1080p gratis, Freud (2020) Primera Temporada WEB-DL [NF] 1080p Latino – CMHDD WEBDL mega 1 link, Freud (2020) Primera Temporada WEB-DL [NF] 1080p Latino – CMHDD WEBDL pelicula completa, descargar Freud (2020) Primera Temporada WEB-DL [NF] 1080p Latino – CMHDD WEBDL gratis en mega.

Freud (2020) Primera Temporada WEB-DL [NF] 1080p Latino – CMHDD pelicula full hd, Freud (2020) Primera Temporada WEB-DL [NF] 1080p Latino – CMHDD mega latino, Freud (2020) Primera Temporada WEB-DL [NF] 1080p Latino – CMHDD 4k latino, Freud (2020) Primera Temporada WEB-DL [NF] 1080p Latino – CMHDD pelicula completa, Freud (2020) Primera Temporada WEB-DL [NF] 1080p Latino – CMHDD descargar gratis, descargar Freud (2020) Primera Temporada WEB-DL [NF] 1080p Latino – CMHDD pelicula latino, Freud (2020) Primera Temporada WEB-DL [NF] 1080p Latino – CMHDD 1 link mega, Freud (2020) Primera Temporada WEB-DL [NF] 1080p Latino – CMHDD 1 link google drive, Freud (2020) Primera Temporada WEB-DL [NF] 1080p Latino – CMHDD hd 1080p latino.
Comentarios 0