×

¿Problemas para descargar con Mozilla, EDGE? Deshabilita la opción "Abrir vinculos en una pestaña nueva" tal como lo muestra ésta imagen.

Frequency (2000) Full HD 1080p Latino – CMHDD

325 vistas

Información de Frequency (2000) Full HD 1080p Latino – CMHDD

Datos de la película

  • Calidad: Full 1080p
  • Audio: Español Latino AC3 2.0 BLURAY - Ingles DTS 5.1 BLURAY
  • Subtitulos: Español Latino PGS
  • Resolución: 1920x1080p
  • Formato: MKV
  • Codec: H.264
  • Encoder: Dracarys
  • Mediainfo: Clic para Mostrar Datos Ver
  • Format                      : Matroska
    Format version              : Version 4
    File size                   : 10.1 GiB
    Duration                    : 1 h 58 min
    Overall bit rate mode       : Variable
    Overall bit rate            : 12.2 Mb/s
    Movie name                  : Frequency (2000) Full HD 1080p Latino - CMHDD
    Encoded date                : UTC 2021-01-25 21:48:08
    Writing application         : mkvmerge v51.0.0 ('I Wish') 64-bit
    Writing library             : libebml v1.4.0 + libmatroska v1.6.2

    Video
    ID                          : 1
    Format                      : AVC
    Format/Info                 : Advanced Video Codec
    Format profile              : High@L4.1
    Format settings             : CABAC / 4 Ref Frames
    Format settings, CABAC      : Yes
    Format settings, Reference  : 4 frames
    Codec ID                    : V_MPEG4/ISO/AVC
    Duration                    : 1 h 58 min
    Bit rate                    : 7 250 kb/s
    Width                       : 1 920 pixels
    Height                      : 1 080 pixels
    Display aspect ratio        : 16:9
    Frame rate mode             : Constant
    Frame rate                  : 23.976 (24000/1001) FPS
    Color space                 : YUV
    Chroma subsampling          : 4:2:0
    Bit depth                   : 8 bits
    Scan type                   : Progressive
    Bits/(Pixel*Frame)          : 0.146
    Stream size                 : 6.01 GiB (59%)
    Writing library             : x264 core 157 r2935 545de2f
    Encoding settings           : cabac=1 / ref=4 / deblock=1:0:0 / analyse=0x3:0x133 / me=tesa / subme=11 / psy=1 / psy_rd=1.00:0.00 / mixed_ref=1 / me_range=24 / chroma_me=1 / trellis=2 / 8x8dct=1 / cqm=0 / deadzone=21,11 / fast_pskip=0 / chroma_qp_offset=-2 / threads=24 / lookahead_threads=6 / sliced_threads=0 / nr=0 / decimate=1 / interlaced=0 / bluray_compat=0 / constrained_intra=0 / bframes=16 / b_pyramid=2 / b_adapt=2 / b_bias=0 / direct=3 / weightb=1 / open_gop=0 / weightp=2 / keyint=240 / keyint_min=24 / scenecut=40 / intra_refresh=0 / rc_lookahead=60 / rc=crf / mbtree=1 / crf=20.0 / qcomp=0.60 / qpmin=0 / qpmax=69 / qpstep=4 / vbv_maxrate=62500 / vbv_bufsize=78125 / crf_max=0.0 / nal_hrd=none / filler=0 / ip_ratio=1.40 / aq=1:1.00
    Default                     : Yes
    Forced                      : No
    Color range                 : Limited
    Color primaries             : BT.709
    Transfer characteristics    : BT.709
    Matrix coefficients         : BT.709

    Audio #1
    ID                          : 2
    Format                      : AC-3
    Format/Info                 : Audio Coding 3
    Commercial name             : Dolby Digital
    Codec ID                    : A_AC3
    Duration                    : 1 h 58 min
    Bit rate mode               : Constant
    Bit rate                    : 192 kb/s
    Channel(s)                  : 2 channels
    Channel layout              : L R
    Sampling rate               : 48.0 kHz
    Frame rate                  : 31.250 FPS (1536 SPF)
    Compression mode            : Lossy
    Stream size                 : 163 MiB (2%)
    Language                    : Spanish
    Service kind                : Complete Main
    Default                     : Yes
    Forced                      : No

    Audio #2
    ID                          : 3
    Format                      : DTS XLL
    Format/Info                 : Digital Theater Systems
    Commercial name             : DTS-HD Master Audio
    Codec ID                    : A_DTS
    Duration                    : 1 h 58 min
    Bit rate mode               : Variable
    Bit rate                    : 4 763 kb/s
    Channel(s)                  : 8 channels
    Channel layout              : C L R LFE Lb Rb Lss Rss
    Sampling rate               : 48.0 kHz
    Frame rate                  : 93.750 FPS (512 SPF)
    Bit depth                   : 24 bits
    Compression mode            : Lossless
    Stream size                 : 3.95 GiB (39%)
    Language                    : English
    Default                     : No
    Forced                      : No

    Text
    ID                          : 4
    Format                      : PGS
    Muxing mode                 : zlib
    Codec ID                    : S_HDMV/PGS
    Codec ID/Info               : Picture based subtitle format used on BDs/HD-DVDs
    Duration                    : 1 h 57 min
    Bit rate                    : 30.5 kb/s
    Count of elements           : 2902
    Stream size                 : 25.7 MiB (0%)
    Language                    : Spanish
    Default                     : No
    Forced                      : No

  • Peso: 10.1 GiB

Sinopsis

John (James Caviezel) vive obsesionado con la muerte de su padre, un bombero (Dennis Quaid), que pereció 30 años antes durante un incendio. Un día, un extraño fenómeno meteorológico le permite hablar con él, a través de un viejo equipo de radioaficionado con el que se comunica con el pasado: John informa a su padre de los errores cometidos en aquel incendio y así evita su muerte. Sin embargo, de este vuelco del destino se derivarán otros trágicos acontecimientos.

Ficha técnica

Video trailer de la película

Enlaces de descarga

Rip de Bluray

Descargar Frequency (2000) Full HD 1080p Latino – CMHDD




Aportes de DPeliculasHDmega la pass es:dpeliculashdmega.org Aportes de CinemaniaHD la pass es:cinemaniahdd.com
Guardado en : Ciencia ficción , Suspenso

Películas relacionadas

  • Paradise Highway (2022) HD 1080p Latino

    Paradise Highway (2022) HD 1080p Latino

    2022
    Paradise Highway (2022) HD 1080p Latino

    1h 55m 2022

    Descargar Paradise Highway (2022) HD 1080p Latino. Un camionero se ha visto obligado a pasar de contrabando...

    Director: Anna Gutto

    Género: Crimen

    Actores: Xavier Scott Evans

  • Paradise Highway (2022) PLACEBO Full HD 1080p Latino

    Paradise Highway (2022) PLACEBO Full HD 1080p Latino

    2022
    Paradise Highway (2022) PLACEBO Full HD 1080p Latino

    1h 55m 2022

    Descargar Paradise Highway (2022) PLACEBO Full HD 1080p Latino. Un camionero se ha visto obligado a pasar...

    Director: Anna Gutto

    Género: Crimen

    Actores: Xavier Scott Evans

  • Paradise Highway (2022) REMUX 1080p Latino

    Paradise Highway (2022) REMUX 1080p Latino

    2022
    Paradise Highway (2022) REMUX 1080p Latino

    1h 55m 2022

    Descargar Paradise Highway (2022) REMUX 1080p Latino. Un camionero se ha visto obligado a pasar de contrabando...

    Director: Anna Gutto

    Género: Crimen

    Actores: Xavier Scott Evans

  • M3GAN (2023) AMZN WEB-DL 4K UHD HDR Latino

    M3GAN (2023) AMZN WEB-DL 4K UHD HDR Latino

    2022
    M3GAN (2023) AMZN WEB-DL 4K UHD HDR Latino

    1h 42m 2022

    Descargar M3GAN (2023) AMZN WEB-DL 4K UHD HDR Latino. Cuando Gemma se convierte en la cuidadora de su...

    Director: Stephen W. Moore

    Género: 4K HDR

    Actores: Violet McGraw

descargar Frequency (2000) Full HD 1080p Latino – CMHDD Full 1080p 1080p gratis, Frequency (2000) Full HD 1080p Latino – CMHDD Full 1080p mega 1 link, Frequency (2000) Full HD 1080p Latino – CMHDD Full 1080p pelicula completa, descargar Frequency (2000) Full HD 1080p Latino – CMHDD Full 1080p gratis en mega.

Frequency (2000) Full HD 1080p Latino – CMHDD pelicula full hd, Frequency (2000) Full HD 1080p Latino – CMHDD mega latino, Frequency (2000) Full HD 1080p Latino – CMHDD 4k latino, Frequency (2000) Full HD 1080p Latino – CMHDD pelicula completa, Frequency (2000) Full HD 1080p Latino – CMHDD descargar gratis, descargar Frequency (2000) Full HD 1080p Latino – CMHDD pelicula latino, Frequency (2000) Full HD 1080p Latino – CMHDD 1 link mega, Frequency (2000) Full HD 1080p Latino – CMHDD 1 link google drive, Frequency (2000) Full HD 1080p Latino – CMHDD hd 1080p latino.
Comentarios 0