Frenzy (2018) 1080p Subtitulado

1.261 vistas
1 estrella2 estrellas3 estrellas4 estrellas5 estrellas (Ninguna valoración todavía)
Cargando…

Información de Frenzy (2018) 1080p Subtitulado

Datos de la película

  • Calidad: 1080p
  • Audio: Ingles AC3 5.1 BLURAY
  • Subtitulos: Español Latino SRT - Ingles SRT
  • Resolución: 1920x1080p
  • Formato: MKV
  • Codec: H.264
  • Encoder: CinefiloCool
  • Mediainfo: Clic para Mostrar Datos Ver
  • Frenzy (2018) 1080p Subtitulado.mkv
    Format                      : Matroska
    Format version              : Version 4
    File size                   : 2.33 GiB
    Duration                    : 1 h 24 min
    Overall bit rate            : 3 922 kb/s
    Movie name                  : CnemaniaHDD.Net
    Encoded date                : UTC 2019-01-10 01:30:55
    Writing application         : mkvmerge v29.0.0 ('Like It Or Not') 64-bit
    Writing library             : libebml v1.3.6 + libmatroska v1.4.9

    Video
    ID                          : 1
    Format                      : AVC
    Format/Info                 : Advanced Video Codec
    Format profile              : [email protected]
    Format settings             : CABAC / 4 Ref Frames
    Format settings, CABAC      : Yes
    Format settings, ReFrames   : 4 frames
    Codec ID                    : V_MPEG4/ISO/AVC
    Duration                    : 1 h 24 min
    Bit rate                    : 3 500 kb/s
    Width                       : 1 920 pixels
    Height                      : 1 080 pixels
    Display aspect ratio        : 16:9
    Frame rate mode             : Constant
    Frame rate                  : 23.976 (24000/1001) FPS
    Color space                 : YUV
    Chroma subsampling          : 4:2:0
    Bit depth                   : 8 bits
    Scan type                   : Progressive
    Bits/(Pixel*Frame)          : 0.070
    Stream size                 : 2.06 GiB (89%)
    Title                       : HD1080p [Bluray]
    Writing library             : x264 core 155 r2901 7d0ff22
    Encoding settings           : cabac=1 / ref=4 / deblock=1:0:0 / analyse=0x3:0x113 / me=hex / subme=8 / psy=1 / psy_rd=1.00:0.00 / mixed_ref=1 / me_range=16 / chroma_me=1 / trellis=2 / 8x8dct=1 / cqm=0 / deadzone=21,11 / fast_pskip=1 / chroma_qp_offset=-2 / threads=34 / lookahead_threads=5 / sliced_threads=0 / nr=0 / decimate=1 / interlaced=0 / bluray_compat=0 / constrained_intra=0 / bframes=3 / b_pyramid=2 / b_adapt=1 / b_bias=0 / direct=3 / weightb=1 / open_gop=0 / weightp=2 / keyint=240 / keyint_min=24 / scenecut=40 / intra_refresh=0 / rc_lookahead=50 / rc=abr / mbtree=1 / bitrate=3500 / ratetol=1.0 / qcomp=0.60 / qpmin=0 / qpmax=69 / qpstep=4 / vbv_maxrate=62500 / vbv_bufsize=78125 / nal_hrd=none / filler=0 / ip_ratio=1.40 / aq=1:1.00
    Default                     : Yes
    Forced                      : No
    Color range                 : Limited
    Color primaries             : BT.709
    Transfer characteristics    : BT.709
    Matrix coefficients         : BT.709

    Audio
    ID                          : 2
    Format                      : AC-3
    Format/Info                 : Audio Coding 3
    Commercial name             : Dolby Digital
    Codec ID                    : A_AC3
    Duration                    : 1 h 24 min
    Bit rate mode               : Constant
    Bit rate                    : 448 kb/s
    Channel(s)                  : 6 channels
    Channel layout              : L R C LFE Ls Rs
    Sampling rate               : 48.0 kHz
    Frame rate                  : 31.250 FPS (1536 SPF)
    Bit depth                   : 16 bits
    Compression mode            : Lossy
    Stream size                 : 272 MiB (11%)
    Title                       : AC3_5.1_Bluray_Eng
    Language                    : English
    Service kind                : Complete Main
    Default                     : Yes
    Forced                      : No

    Text #1
    ID                          : 3
    Format                      : UTF-8
    Codec ID                    : S_TEXT/UTF8
    Codec ID/Info               : UTF-8 Plain Text
    Duration                    : 1 h 23 min
    Bit rate                    : 48 b/s
    Count of elements           : 1029
    Stream size                 : 30.0 KiB (0%)
    Title                       : Sub_Esp
    Language                    : Spanish
    Default                     : Yes
    Forced                      : Yes

    Text #2
    ID                          : 4
    Format                      : UTF-8
    Codec ID                    : S_TEXT/UTF8
    Codec ID/Info               : UTF-8 Plain Text
    Duration                    : 1 h 24 min
    Bit rate                    : 45 b/s
    Count of elements           : 1054
    Stream size                 : 28.0 KiB (0%)
    Title                       : Sub_Eng
    Language                    : English
    Default                     : No
    Forced                      : No

    Menu
    00:00:00.000                : :Chapter 1
    00:07:04.382                : :Chapter 2
    00:18:12.758                : :Chapter 3
    00:23:35.748                : :Chapter 4
    00:30:51.725                : :Chapter 5
    00:40:31.179                : :Chapter 6
    00:50:29.318                : :Chapter 7
    00:58:36.888                : :Chapter 8
    01:06:45.793                : :Chapter 9
    01:12:55.955                : :Chapter 10
    01:18:12.438                : :Chapter 11
    01:24:24.351                : :Chapter 12

  • Peso: 2.33 GiB

Sinopsis

Descargar Frenzy (2018) 1080p Subtitulado, Mega, Google Drive, Torrent. Paige (Gina Vitori) invita a su hermana pequeña Lindsey (Aubrey Reynolds) a una inmersión de buceo en una cueva submarina. Sin embargo, las cosas no salen según lo previsto: su avión se estrella y se despiertan desorientadas en la isla. Allí se encontrarán con tiburones asesinos que las perseguirán incansablemente mientras hacen todo lo posible por sobrevivir a sus feroces ataques.

Ficha técnica

Video trailer de la película

Enlaces de descarga

Rip de Bluray

Descargar Frenzy (2018) 1080p Subtitulado




Aportes de DPeliculasHDmega la pass es:dpeliculashdmega.org Aportes de CinemaniaHD la pass es:cinemaniahdd.com

Películas relacionadas

  • The mule (2018) WEB-DL 1080p Latino

    2018
    The mule (2018) WEB-DL 1080p Latino

    0.0 1h 56m 2018

    A Earl Stone (Eastwood), un octogenario que está en quiebra, solo, y que se enfrenta a la ejecución...

    Director: Clint Eastwood

    Género: Crimen

    Actores: Victor Rasuk

  • Robin Hood (2018) 4K UHD HDR Latino

    2018
    Robin Hood (2018) 4K UHD HDR Latino

    0.0 1h 56m 2018

    Descargar Robin Hood (2018) 4K UHD HDR Latino, Mega, Google Drive. Cuando el joven Robin Hood (Taron...

    Director: Otto Bathurst

    Género: 4K HDR

    Actores: Yasen Atour

  • Operacion Overlord (2018) 4K UHD HDR Latino

    2018
    Operacion Overlord (2018) 4K UHD HDR Latino

    5.0 1h 50m 2018

    Descargar Operacion Overlord (2018) 4K UHD HDR Latino, Mega, Google Drive. La víspera del Día D, un...

    Director: Roxanne Cuenca

    Género: 4K HDR

    Actores: Wyatt Russell

  • El último Sharknado: Ya era hora (2018) 1080p Latino

    2018
    El último Sharknado: Ya era hora (2018) 1080p Latino

    3.0 1h 30m 2018

    Todo está perdido, ¿o no? Fin desbloquea el poder de viajar en el tiempo a través de los SHARKNADOS...

    Director: Anthony C. Ferrante

    Género: Acción

    Actores: Vivica A. Fox

  • El último hombre (2018) 1080p Latino

    2018
    El último hombre (2018) 1080p Latino

    3.3 1h 41m 2018

    El último hombre cuenta la historia de Kurt Matheson, un veterano de guerra con trastorno de estrés...

    Director: Rodrigo H. Vila

    Género: Acción

    Actores: Raymond E. Lee

Comentarios 0