×

¿Problemas para descargar con Mozilla, EDGE? Deshabilita la opción "Abrir vinculos en una pestaña nueva" tal como lo muestra ésta imagen.

Freestyle (2023) NF WEB-DL 1080p Latino

153 vistas

Información de Freestyle (2023) NF WEB-DL 1080p Latino

Datos de la película

  • Calidad: WEBDL
  • Audio: Se especifica abajo de la Sinopsis
  • Subtitulos: Español Latino SRT- FORZADOS SRT
  • Resolución: 1920x1080p
  • Formato: MKV
  • Codec: H.264
  • Encoder: Melkor
  • Mediainfo: Clic para Mostrar Datos Ver
  • Freestyle (2023) NF WebDL 1080p Latino.mkv
    Format                      : Matroska
    Format version              : Version 4
    File size                   : 3.98 GiB
    Duration                    : 1 h 28 min
    Overall bit rate mode       : Variable
    Overall bit rate            : 6 453 kb/s
    Movie name                  : Freestyle (2023) CinemaniaHDD.Net
    Encoded date                : UTC 2023-09-16 16:17:56
    Writing application         : mkvmerge v56.1.0 ('My Friend') 64-bit
    Writing library             : libebml v1.4.2 + libmatroska v1.6.4
    Site                        : CinemaniaHDD.Net
    Uploader                    : Melkor

    Video
    ID                          : 1
    Format                      : AVC
    Format/Info                 : Advanced Video Codec
    Format profile              : Main@L4
    Format settings             : CABAC / 3 Ref Frames
    Format settings, CABAC      : Yes
    Format settings, Reference  : 3 frames
    Codec ID                    : V_MPEG4/ISO/AVC
    Duration                    : 1 h 28 min
    Bit rate mode               : Variable
    Bit rate                    : 4 722 kb/s
    Nominal bit rate            : 5 000 kb/s
    Maximum bit rate            : 7 500 kb/s
    Width                       : 1 920 pixels
    Height                      : 1 080 pixels
    Display aspect ratio        : 16:9
    Frame rate mode             : Constant
    Frame rate                  : 25.000 FPS
    Color space                 : YUV
    Chroma subsampling          : 4:2:0
    Bit depth                   : 8 bits
    Scan type                   : Progressive
    Bits/(Pixel*Frame)          : 0.091
    Stream size                 : 2.92 GiB (73%)
    Title                       : Web HD1080p [CinemaniaHDD]
    Writing library             : x264 core 148 r2727 7d026e8
    Encoding settings           : cabac=1 / ref=3 / deblock=1:0:0 / analyse=0x1:0x111 / me=umh / subme=10 / psy=1 / psy_rd=1.00:0.00 / mixed_ref=1 / me_range=24 / chroma_me=1 / trellis=2 / 8x8dct=0 / cqm=0 / deadzone=21,11 / fast_pskip=1 / chroma_qp_offset=-2 / threads=6 / lookahead_threads=1 / sliced_threads=0 / nr=0 / decimate=1 / interlaced=0 / bluray_compat=0 / stitchable=1 / constrained_intra=0 / bframes=2 / b_pyramid=0 / b_adapt=2 / b_bias=0 / direct=3 / weightb=1 / open_gop=0 / weightp=2 / keyint=250 / keyint_min=126 / scenecut=0 / intra_refresh=0 / rc_lookahead=50 / rc=2pass / mbtree=1 / bitrate=5000 / ratetol=1.0 / qcomp=0.50 / qpmin=6 / qpmax=51 / qpstep=4 / cplxblur=20.0 / qblur=0.5 / vbv_maxrate=7500 / vbv_bufsize=10000 / nal_hrd=vbr / filler=0 / ip_ratio=1.40 / aq=1:1.00
    Default                     : Yes
    Forced                      : Yes

    Audio #1
    ID                          : 2
    Format                      : AC-3
    Format/Info                 : Audio Coding 3
    Commercial name             : Dolby Digital
    Codec ID                    : A_AC3
    Duration                    : 1 h 28 min
    Bit rate mode               : Constant
    Bit rate                    : 448 kb/s
    Channel(s)                  : 6 channels
    Channel layout              : L R C LFE Ls Rs
    Sampling rate               : 48.0 kHz
    Frame rate                  : 31.250 FPS (1536 SPF)
    Compression mode            : Lossy
    Stream size                 : 283 MiB (7%)
    Title                       : Español Latino AC3 [CinemaniaHDD]
    Language                    : Spanish
    Service kind                : Complete Main
    Default                     : Yes
    Forced                      : Yes

    Audio #2
    ID                          : 3
    Format                      : E-AC-3
    Format/Info                 : Enhanced AC-3
    Commercial name             : Dolby Digital Plus
    Codec ID                    : A_EAC3
    Duration                    : 1 h 28 min
    Bit rate mode               : Constant
    Bit rate                    : 640 kb/s
    Channel(s)                  : 6 channels
    Channel layout              : L R C LFE Ls Rs
    Sampling rate               : 48.0 kHz
    Frame rate                  : 31.250 FPS (1536 SPF)
    Compression mode            : Lossy
    Stream size                 : 405 MiB (10%)
    Title                       : Español Latino EAC3 [CinemaniaHDD]
    Language                    : Spanish
    Service kind                : Complete Main
    Default                     : No
    Forced                      : No

    Audio #3
    ID                          : 4
    Format                      : E-AC-3
    Format/Info                 : Enhanced AC-3
    Commercial name             : Dolby Digital Plus
    Codec ID                    : A_EAC3
    Duration                    : 1 h 28 min
    Bit rate mode               : Constant
    Bit rate                    : 640 kb/s
    Channel(s)                  : 6 channels
    Channel layout              : L R C LFE Ls Rs
    Sampling rate               : 48.0 kHz
    Frame rate                  : 31.250 FPS (1536 SPF)
    Compression mode            : Lossy
    Stream size                 : 405 MiB (10%)
    Title                       : Polaco [CinemaniaHDD]
    Language                    : Polish
    Service kind                : Complete Main
    Default                     : No
    Forced                      : No

    Text #1
    ID                          : 5
    Format                      : UTF-8
    Codec ID                    : S_TEXT/UTF8
    Codec ID/Info               : UTF-8 Plain Text
    Duration                    : 1 h 21 min
    Bit rate                    : 5 b/s
    Count of elements           : 101
    Stream size                 : 3.36 KiB (0%)
    Title                       : Forzados-SRT [CinemaniaHDD]
    Language                    : Spanish
    Default                     : Yes
    Forced                      : Yes

    Text #2
    ID                          : 6
    Format                      : UTF-8
    Codec ID                    : S_TEXT/UTF8
    Codec ID/Info               : UTF-8 Plain Text
    Duration                    : 1 h 26 min
    Bit rate                    : 57 b/s
    Count of elements           : 1316
    Stream size                 : 36.3 KiB (0%)
    Title                       : Español-SRT [CinemaniaHDD]
    Language                    : Spanish
    Default                     : No
    Forced                      : No

    Text #3
    ID                          : 7
    Format                      : UTF-8
    Codec ID                    : S_TEXT/UTF8
    Codec ID/Info               : UTF-8 Plain Text
    Duration                    : 1 h 26 min
    Bit rate                    : 91 b/s
    Count of elements           : 1621
    Stream size                 : 57.8 KiB (0%)
    Title                       : Ingles-SRT [CinemaniaHDD]
    Language                    : English
    Default                     : No
    Forced                      : No

  • Peso: 3.98 GiB

Sinopsis

Descargar Freestyle (2023) NF WEB-DL 1080p Latino. Una promesa del rap con un pasado delictivo decide vender droga para saldar su deuda con el estudio de grabación. Pero su arriesgado plan podría costarle muy caro.

Español Latino EAC3 & AC3 5.1 NF – Polaco EAC3 5.1 NF

Ficha técnica

Video trailer de la película

Enlaces de descarga

Rip de Bluray

Descargar Freestyle (2023) NF WEB-DL 1080p Latino




Aportes de DPeliculasHDmega la pass es:dpeliculashdmega.org Aportes de CinemaniaHD la pass es:cinemaniahdd.com Aportes recientes:cinemaniahdd.net
Guardado en : Acción , Crimen , Netflix , Suspenso

Películas relacionadas

  • El bebé de Rosemary (1968) 1080p Latino-CMHDD

    El bebé de Rosemary (1968) 1080p Latino-CMHDD

    1968
    El bebé de Rosemary (1968) 1080p Latino-CMHDD

    2h 18m 1968

    Descargar El bebé de Rosemary (1968) 1080p Latino-CMHDD. Una joven pareja, Rosemary y Guy, se muda a...

    Director: Roman Polanski

    Género: Drama

    Actores: William Castle

  • El Contador (2016) Full HD 1080p Latino-CMHDD

    El Contador (2016) Full HD 1080p Latino-CMHDD

    2016
    El Contador (2016) Full HD 1080p Latino-CMHDD

    2h 8m 2016

    Descargar El Contador (2016) Full HD 1080p Latino-CMHDD. Christian Wolff es un contable y genio matemático,...

    Director: Lori Grabowski

    Género: Crimen

    Actores: Tait Fletcher

  • El Contador (2016) REMUX 1080p Latino-CMHDD

    El Contador (2016) REMUX 1080p Latino-CMHDD

    2016
    El Contador (2016) REMUX 1080p Latino-CMHDD

    2h 8m 2016

    Descargar El Contador (2016) REMUX 1080p Latino-CMHDD. Christian Wolff es un contable y genio matemático,...

    Director: Lori Grabowski

    Género: Crimen

    Actores: Tait Fletcher

descargar Freestyle (2023) NF WEB-DL 1080p Latino WEBDL 1080p gratis, Freestyle (2023) NF WEB-DL 1080p Latino WEBDL mega 1 link, Freestyle (2023) NF WEB-DL 1080p Latino WEBDL pelicula completa, descargar Freestyle (2023) NF WEB-DL 1080p Latino WEBDL gratis en mega.

Freestyle (2023) NF WEB-DL 1080p Latino pelicula full hd, Freestyle (2023) NF WEB-DL 1080p Latino mega latino, Freestyle (2023) NF WEB-DL 1080p Latino 4k latino, Freestyle (2023) NF WEB-DL 1080p Latino pelicula completa, Freestyle (2023) NF WEB-DL 1080p Latino descargar gratis, descargar Freestyle (2023) NF WEB-DL 1080p Latino pelicula latino, Freestyle (2023) NF WEB-DL 1080p Latino 1 link mega, Freestyle (2023) NF WEB-DL 1080p Latino 1 link google drive, Freestyle (2023) NF WEB-DL 1080p Latino hd 1080p latino.
Comentarios 0