×

¿Problemas para descargar con Mozilla, EDGE? Deshabilita la opción "Abrir vinculos en una pestaña nueva" tal como lo muestra ésta imagen.

Freelance (2023) WEB-DL 1080p Latino

35 vistas

Información de Freelance (2023) WEB-DL 1080p Latino

Datos de la película

  • Calidad: 1080p
  • Audio: Español Latino AC3 5.1 WEB-DL - Ingles AC3 5.1 WEB-DL
  • Subtitulos: Español Latino SRT- FORZADOS SRT
  • Resolución: 1920x1080
  • Formato: MKV
  • Codec: H.264
  • Encoder: cinemaniahdd
  • Mediainfo: Clic para Mostrar Datos Ver
  • Freelance (2023) WEB-DL 1080p Latino [CNMNHDD].mkv
    Format                      : Matroska
    Format version              : Version 4
    File size                   : 4.79 GiB
    Duration                    : 1 h 48 min
    Overall bit rate            : 6 339 kb/s
    Movie name                  : Héroe por encargo (2023) [1080p] - CinemaniaHDD.Net
    Encoded date                : UTC 2024-03-25 04:49:05
    Writing application         : mkvmerge v56.1.0 ('My Friend') 64-bit
    Writing library             : libebml v1.4.2 + libmatroska v1.6.4

    Video
    ID                          : 1
    Format                      : AVC
    Format/Info                 : Advanced Video Codec
    Format profile              : High@L4
    Format settings             : CABAC / 2 Ref Frames
    Format settings, CABAC      : Yes
    Format settings, Reference  : 2 frames
    Codec ID                    : V_MPEG4/ISO/AVC
    Duration                    : 1 h 48 min
    Bit rate                    : 5 564 kb/s
    Width                       : 1 920 pixels
    Height                      : 1 080 pixels
    Display aspect ratio        : 16:9
    Frame rate mode             : Constant
    Frame rate                  : 24.000 FPS
    Color space                 : YUV
    Chroma subsampling          : 4:2:0
    Bit depth                   : 8 bits
    Scan type                   : Progressive
    Bits/(Pixel*Frame)          : 0.112
    Stream size                 : 4.20 GiB (88%)
    Title                       : CinemaniaHDD
    Writing library             : x264 core 155 r2901 7d0ff22
    Default                     : Yes
    Forced                      : No
    Color range                 : Limited
    Color primaries             : BT.709
    Transfer characteristics    : BT.709
    Matrix coefficients         : BT.709

    Audio #1
    ID                          : 2
    Format                      : AAC LC
    Format/Info                 : Advanced Audio Codec Low Complexity
    Codec ID                    : A_AAC-2
    Duration                    : 1 h 48 min
    Bit rate                    : 384 kb/s
    Channel(s)                  : 6 channels
    Channel layout              : C L R Ls Rs LFE
    Sampling rate               : 48.0 kHz
    Frame rate                  : 46.875 FPS (1024 SPF)
    Compression mode            : Lossy
    Stream size                 : 299 MiB (6%)
    Title                       : Español Latino [CinemaniaHDD]
    Language                    : Spanish
    Default                     : Yes
    Forced                      : No

    Audio #2
    ID                          : 3
    Format                      : AAC LC
    Format/Info                 : Advanced Audio Codec Low Complexity
    Codec ID                    : A_AAC-2
    Duration                    : 1 h 48 min
    Bit rate                    : 384 kb/s
    Channel(s)                  : 6 channels
    Channel layout              : C L R Ls Rs LFE
    Sampling rate               : 48.0 kHz
    Frame rate                  : 46.875 FPS (1024 SPF)
    Compression mode            : Lossy
    Stream size                 : 299 MiB (6%)
    Title                       : Inglés [CinemaniaHDD]
    Language                    : English
    Default                     : No
    Forced                      : No

    Text #1
    ID                          : 4
    Format                      : UTF-8
    Codec ID                    : S_TEXT/UTF8
    Codec ID/Info               : UTF-8 Plain Text
    Duration                    : 5 min 41 s
    Bit rate                    : 4 b/s
    Count of elements           : 3
    Stream size                 : 178 Bytes (0%)
    Title                       : Forzados [CinemaniaHDD]
    Language                    : Spanish
    Default                     : Yes
    Forced                      : Yes

    Text #2
    ID                          : 5
    Format                      : UTF-8
    Codec ID                    : S_TEXT/UTF8
    Codec ID/Info               : UTF-8 Plain Text
    Duration                    : 1 h 43 min
    Bit rate                    : 54 b/s
    Count of elements           : 1269
    Stream size                 : 41.2 KiB (0%)
    Title                       : Español
    Language                    : Spanish
    Default                     : No
    Forced                      : No

     

  • Peso: 4.79 GiB

Sinopsis

Mason Petit (John Cena) es un soldado retirado de las fuerzas especiales que, tras años de paz, tranquilidad y monotonía, decide abandonar su aburrido retiro en los suburbios para volver al trabajo y proteger a la periodista (Alison Brie) mientras entrevista a un cruel dictador (Juan Pablo Raba). En mitad de la entrevista, estallará un golpe militar que hará peligrar sus vidas y les llevará a esconderse en la selva donde deberán emplearse a fondo para sobrevivir.

Ficha técnica

  • Titulo original: Freelance
  • Fecha de lanzamiento: 05-10-2023 (United States of America)
  • Director: Pierre Morel
  • Género: Acción, Comedia

Video trailer de la película

Enlaces de descarga

Rip de Bluray

Descargar Freelance (2023) WEB-DL 1080p Latino




Aportes de DPeliculasHDmega la pass es:dpeliculashdmega.org Aportes de CinemaniaHD la pass es:cinemaniahdd.com Aportes recientes:cinemaniahdd.net
Guardado en : Acción , Comedia

Películas relacionadas

descargar Freelance (2023) WEB-DL 1080p Latino 1080p 1080p gratis, Freelance (2023) WEB-DL 1080p Latino 1080p mega 1 link, Freelance (2023) WEB-DL 1080p Latino 1080p pelicula completa, descargar Freelance (2023) WEB-DL 1080p Latino 1080p gratis en mega.

Freelance (2023) WEB-DL 1080p Latino pelicula full hd, Freelance (2023) WEB-DL 1080p Latino mega latino, Freelance (2023) WEB-DL 1080p Latino 4k latino, Freelance (2023) WEB-DL 1080p Latino pelicula completa, Freelance (2023) WEB-DL 1080p Latino descargar gratis, descargar Freelance (2023) WEB-DL 1080p Latino pelicula latino, Freelance (2023) WEB-DL 1080p Latino 1 link mega, Freelance (2023) WEB-DL 1080p Latino 1 link google drive, Freelance (2023) WEB-DL 1080p Latino hd 1080p latino.
Comentarios 0