×

¿Problemas para descargar con Mozilla, EDGE? Deshabilita la opción "Abrir vinculos en una pestaña nueva" tal como lo muestra ésta imagen.

Escritores de Libertad (2007) Full HD 1080p Latino-CMHDD

207 vistas

Información de Escritores de Libertad (2007) Full HD 1080p Latino-CMHDD

Datos de la película

  • Calidad: Full 1080p
  • Audio: Español Latino AC3 5.1 BLURAY - Ingles AC3 5.1 BLURAY
  • Subtitulos: Español Latino PGS - Ingles PGS
  • Resolución: 1920x1080p
  • Formato: MKV
  • Codec: H.264
  • Encoder: CinefiloCool
  • Mediainfo: Clic para Mostrar Datos Ver
  • Escritores De La Libertad (2007) Full HD 1080p Latino-CMHDD.mkv
    Format                      : Matroska
    Format version              : Version 4
    File size                   : 5.83 GiB
    Duration                    : 2 h 2 min
    Overall bit rate            : 6 792 kb/s
    Movie name                  : Freedom Writers (2007) CinemaniaHDD.Net
    Encoded date                : UTC 2023-12-05 06:04:04
    Writing application         : mkvmerge v56.1.0 ('My Friend') 64-bit
    Writing library             : libebml v1.4.2 + libmatroska v1.6.4
    Attachments                 : CINEMANIAHD.png

    Video
    ID                          : 1
    Format                      : AVC
    Format/Info                 : Advanced Video Codec
    Format profile              : High@L4.1
    Format settings             : CABAC / 4 Ref Frames
    Format settings, CABAC      : Yes
    Format settings, Reference  : 4 frames
    Codec ID                    : V_MPEG4/ISO/AVC
    Duration                    : 2 h 2 min
    Bit rate                    : 5 485 kb/s
    Width                       : 1 920 pixels
    Height                      : 1 080 pixels
    Display aspect ratio        : 16:9
    Frame rate mode             : Constant
    Frame rate                  : 23.976 (24000/1001) FPS
    Color space                 : YUV
    Chroma subsampling          : 4:2:0
    Bit depth                   : 8 bits
    Scan type                   : Progressive
    Bits/(Pixel*Frame)          : 0.110
    Stream size                 : 4.71 GiB (81%)
    Title                       : Full HD1080p [CinemaniaHDD]
    Writing library             : x264 core 163 r3059 b684ebe0
    Encoding settings           : cabac=1 / ref=4 / deblock=1:0:0 / analyse=0x3:0x133 / me=tesa / subme=11 / psy=1 / psy_rd=1.00:0.00 / mixed_ref=1 / me_range=24 / chroma_me=1 / trellis=2 / 8x8dct=1 / cqm=0 / deadzone=21,11 / fast_pskip=0 / chroma_qp_offset=-2 / threads=24 / lookahead_threads=6 / sliced_threads=0 / nr=0 / decimate=1 / interlaced=0 / bluray_compat=0 / constrained_intra=0 / bframes=16 / b_pyramid=2 / b_adapt=2 / b_bias=0 / direct=3 / weightb=1 / open_gop=0 / weightp=2 / keyint=240 / keyint_min=24 / scenecut=40 / intra_refresh=0 / rc_lookahead=60 / rc=crf / mbtree=1 / crf=20.0 / qcomp=0.60 / qpmin=0 / qpmax=69 / qpstep=4 / vbv_maxrate=62500 / vbv_bufsize=78125 / crf_max=0.0 / nal_hrd=none / filler=0 / ip_ratio=1.40 / aq=1:1.00
    Default                     : Yes
    Forced                      : Yes
    Color range                 : Limited
    Color primaries             : BT.709
    Transfer characteristics    : BT.709
    Matrix coefficients         : BT.709

    Audio #1
    ID                          : 2
    ID in the original source m : 4354 (0x1102)
    Format                      : AC-3
    Format/Info                 : Audio Coding 3
    Commercial name             : Dolby Digital
    Codec ID                    : A_AC3
    Duration                    : 2 h 2 min
    Bit rate mode               : Constant
    Bit rate                    : 640 kb/s
    Channel(s)                  : 6 channels
    Channel layout              : L R C LFE Ls Rs
    Sampling rate               : 48.0 kHz
    Frame rate                  : 31.250 FPS (1536 SPF)
    Compression mode            : Lossy
    Stream size                 : 563 MiB (9%)
    Title                       : Español Latino [CinemaniaHDD]
    Language                    : Spanish
    Service kind                : Complete Main
    Default                     : Yes
    Forced                      : Yes
    Original source medium      : Blu-ray

    Audio #2
    ID                          : 3
    ID in the original source m : 4352 (0x1100)
    Format                      : AC-3
    Format/Info                 : Audio Coding 3
    Commercial name             : Dolby Digital
    Codec ID                    : A_AC3
    Duration                    : 2 h 2 min
    Bit rate mode               : Constant
    Bit rate                    : 640 kb/s
    Channel(s)                  : 6 channels
    Channel layout              : L R C LFE Ls Rs
    Sampling rate               : 48.0 kHz
    Frame rate                  : 31.250 FPS (1536 SPF)
    Compression mode            : Lossy
    Stream size                 : 563 MiB (9%)
    Title                       : Ingles [CinemaniaHDD]
    Language                    : English
    Service kind                : Complete Main
    Default                     : No
    Forced                      : No
    Original source medium      : Blu-ray

    Text #1
    ID                          : 4
    ID in the original source m : 4611 (0x1203)
    Format                      : PGS
    Muxing mode                 : zlib
    Codec ID                    : S_HDMV/PGS
    Codec ID/Info               : Picture based subtitle format used on BDs/HD-DVDs
    Duration                    : 1 h 56 min
    Bit rate                    : 38.6 kb/s
    Count of elements           : 2852
    Stream size                 : 32.1 MiB (1%)
    Title                       : Español-PGS [CinemaniaHDD]
    Language                    : Spanish
    Default                     : No
    Forced                      : No
    Original source medium      : Blu-ray

    Text #2
    ID                          : 5
    ID in the original source m : 4608 (0x1200)
    Format                      : PGS
    Muxing mode                 : zlib
    Codec ID                    : S_HDMV/PGS
    Codec ID/Info               : Picture based subtitle format used on BDs/HD-DVDs
    Duration                    : 1 h 55 min
    Bit rate                    : 46.7 kb/s
    Count of elements           : 3082
    Stream size                 : 38.6 MiB (1%)
    Title                       : Ingles [CinemaniaHDD]
    Language                    : English
    Default                     : No
    Forced                      : No
    Original source medium      : Blu-ray

    Text #3
    ID                          : 6
    Format                      : UTF-8
    Codec ID                    : S_TEXT/UTF8
    Codec ID/Info               : UTF-8 Plain Text
    Duration                    : 2 s 436 ms
    Bit rate                    : 75 b/s
    Count of elements           : 1
    Stream size                 : 23.0 Bytes (0%)
    Title                       : Forzados-SRT [CinemaniaHDD]
    Language                    : Spanish
    Default                     : Yes
    Forced                      : Yes

    Text #4
    ID                          : 7
    Format                      : UTF-8
    Codec ID                    : S_TEXT/UTF8
    Codec ID/Info               : UTF-8 Plain Text
    Duration                    : 1 h 56 min
    Bit rate                    : 60 b/s
    Count of elements           : 1426
    Stream size                 : 51.2 KiB (0%)
    Title                       : Español-SRT [CinemaniaHDD]
    Language                    : Spanish
    Default                     : No
    Forced                      : No

    Menu
    00:00:00.000                : Chapter 01
    00:06:25.385                : Chapter 02
    00:12:50.895                : Chapter 03
    00:19:43.891                : Chapter 04
    00:26:45.604                : Chapter 05
    00:37:27.411                : Chapter 06
    00:47:16.124                : Chapter 07
    00:55:44.007                : Chapter 08
    01:00:04.892                : Chapter 09
    01:09:02.763                : Chapter 10
    01:16:23.870                : Chapter 11
    01:22:31.488                : Chapter 12
    01:29:01.044                : Chapter 13
    01:37:59.665                : Chapter 14
    01:43:07.598                : Chapter 15
    01:50:44.679                : Chapter 16
    01:56:55.008                : Chapter 17

  • Peso: 5.83 GiB

Sinopsis

Descargar Escritores de Libertad (2007) Full HD 1080p Latino. Erin Gruwell es una joven profesora recién licenciada que empieza a trabajar dando clases de lengua en un instituto de Long Beach (California), cuyos alumnos, que viven en barrios marginales, están marcados por la violencia de las bandas. Después de un mal comienzo, descubre cómo ganarse su respeto y confianza y cómo ayudarles a cambiar: les habla de Ana Frank y de otros adolescentes, menos afortunados que ellos, que vivieron grandes tragedias y escribieron sobre ellas.

Ficha técnica

Video trailer de la película

Enlaces de descarga

Rip de Bluray

Descargar Escritores de Libertad (2007) Full HD 1080p Latino-CMHDD




Aportes de DPeliculasHDmega la pass es:dpeliculashdmega.org Aportes de CinemaniaHD la pass es:cinemaniahdd.com Aportes recientes:cinemaniahdd.net

Películas relacionadas

  • Amor, Mentiras y Sangre (2024) REMUX 1080p Latino

    Amor, Mentiras y Sangre (2024) REMUX 1080p Latino

    2024
    Amor, Mentiras y Sangre (2024) REMUX 1080p Latino

    1h 44m 2024

    Descargar Amor, Mentiras y Sangre (2024) REMUX 1080p Latino. Jackie está decidida a triunfar como culturista...

    Director: William Merritt Thomas

    Género: Crimen

    Actores: Tait Fletcher

  • Amor, Mentiras y Sangre (2024) HD 1080p Latino

    Amor, Mentiras y Sangre (2024) HD 1080p Latino

    2024
    Amor, Mentiras y Sangre (2024) HD 1080p Latino

    1h 44m 2024

    Descargar Amor, Mentiras y Sangre (2024) HD 1080p Latino. Jackie está decidida a triunfar como culturista...

    Director: William Merritt Thomas

    Género: Crimen

    Actores: Tait Fletcher

  • Seven Pounds (2008) REMUX 1080p Latino – CMHDD

    Seven Pounds (2008) REMUX 1080p Latino – CMHDD

    2008
    Seven Pounds (2008) REMUX 1080p Latino – CMHDD

    2h 3m 2008

    Ben Thomas es un inspector de Hacienda que comienza a contactar con determinadas personas con la aparente...

    Director: Paul Schneider

    Género: Drama

    Actores: Woody Harrelson

descargar Escritores de Libertad (2007) Full HD 1080p Latino-CMHDD Full 1080p 1080p gratis, Escritores de Libertad (2007) Full HD 1080p Latino-CMHDD Full 1080p mega 1 link, Escritores de Libertad (2007) Full HD 1080p Latino-CMHDD Full 1080p pelicula completa, descargar Escritores de Libertad (2007) Full HD 1080p Latino-CMHDD Full 1080p gratis en mega.

Escritores de Libertad (2007) Full HD 1080p Latino-CMHDD pelicula full hd, Escritores de Libertad (2007) Full HD 1080p Latino-CMHDD mega latino, Escritores de Libertad (2007) Full HD 1080p Latino-CMHDD 4k latino, Escritores de Libertad (2007) Full HD 1080p Latino-CMHDD pelicula completa, Escritores de Libertad (2007) Full HD 1080p Latino-CMHDD descargar gratis, descargar Escritores de Libertad (2007) Full HD 1080p Latino-CMHDD pelicula latino, Escritores de Libertad (2007) Full HD 1080p Latino-CMHDD 1 link mega, Escritores de Libertad (2007) Full HD 1080p Latino-CMHDD 1 link google drive, Escritores de Libertad (2007) Full HD 1080p Latino-CMHDD hd 1080p latino.
Comentarios 0