×

¿Problemas para descargar con Mozilla, EDGE? Deshabilita la opción "Abrir vinculos en una pestaña nueva" tal como lo muestra ésta imagen.

Free Guy: Tomando El Control (2021) REMUX 1080p Latino

318 vistas

Información de Free Guy: Tomando El Control (2021) REMUX 1080p Latino

Datos de la película

  • Calidad: Full 1080p
  • Audio: Se especifica abajo de la Sinopsis
  • Subtitulos: Español Latino SRT- FORZADOS SRT
  • Resolución: 1920x1080p
  • Formato: MKV
  • Codec: H.264
  • Encoder: Melkor
  • Mediainfo: Clic para Mostrar Datos Ver
  • Free Guy Tomando El Control (2021) REMUX 1080p Latino.mkv
    Format                      : Matroska
    Format version              : Version 4
    File size                   : 29.5 GiB
    Duration                    : 1 h 54 min
    Overall bit rate mode       : Variable
    Overall bit rate            : 36.7 Mb/s
    Movie name                  : Free Guy (2021) CinemaniaHDD.Net
    Encoded date                : UTC 2021-09-28 15:20:26
    Writing application         : mkvmerge v56.1.0 ('My Friend') 64-bit
    Writing library             : libebml v1.4.2 + libmatroska v1.6.4
    Attachments                 : CINEMANIAHD.png

    Video
    ID                          : 1
    Format                      : AVC
    Format/Info                 : Advanced Video Codec
    Format profile              : High@L4.1
    Format settings             : CABAC / 4 Ref Frames
    Format settings, CABAC      : Yes
    Format settings, Reference  : 4 frames
    Codec ID                    : V_MPEG4/ISO/AVC
    Duration                    : 1 h 54 min
    Bit rate mode               : Variable
    Bit rate                    : 31.4 Mb/s
    Maximum bit rate            : 35.0 Mb/s
    Width                       : 1 920 pixels
    Height                      : 1 080 pixels
    Display aspect ratio        : 16:9
    Frame rate mode             : Constant
    Frame rate                  : 23.976 (24000/1001) FPS
    Color space                 : YUV
    Chroma subsampling          : 4:2:0
    Bit depth                   : 8 bits
    Scan type                   : Progressive
    Bits/(Pixel*Frame)          : 0.631
    Stream size                 : 25.2 GiB (85%)
    Title                       : REMUX HD1080p [CinemaniaHDD]
    Default                     : Yes
    Forced                      : Yes

    Audio #1
    ID                          : 2
    Format                      : AC-3
    Format/Info                 : Audio Coding 3
    Commercial name             : Dolby Digital
    Codec ID                    : A_AC3
    Duration                    : 1 h 54 min
    Bit rate mode               : Constant
    Bit rate                    : 256 kb/s
    Channel(s)                  : 2 channels
    Channel layout              : L R
    Sampling rate               : 48.0 kHz
    Frame rate                  : 31.250 FPS (1536 SPF)
    Compression mode            : Lossy
    Stream size                 : 211 MiB (1%)
    Title                       : Español Latino [CinemaniaHDD]
    Language                    : Spanish
    Service kind                : Complete Main
    Default                     : Yes
    Forced                      : Yes

    Audio #2
    ID                          : 3
    Format                      : DTS ES XLL
    Format/Info                 : Digital Theater Systems
    Commercial name             : DTS-HD Master Audio
    Codec ID                    : A_DTS
    Duration                    : 1 h 54 min
    Bit rate mode               : Variable
    Bit rate                    : 5 071 kb/s
    Channel(s)                  : 8 channels
    Channel layout              : C L R Ls Rs LFE Lb Rb
    Sampling rate               : 48.0 kHz
    Frame rate                  : 93.750 FPS (512 SPF)
    Bit depth                   : 24 bits
    Compression mode            : Lossless
    Stream size                 : 4.07 GiB (14%)
    Title                       : Ingles [CinemaniaHDD]
    Language                    : English
    Default                     : No
    Forced                      : No

    Text #1
    ID                          : 4
    Format                      : UTF-8
    Codec ID                    : S_TEXT/UTF8
    Codec ID/Info               : UTF-8 Plain Text
    Duration                    : 1 h 39 min
    Bit rate                    : 1 b/s
    Count of elements           : 28
    Stream size                 : 890 Bytes (0%)
    Title                       : Forzados-SRT [CinemaniaHDD]
    Language                    : Spanish
    Default                     : Yes
    Forced                      : Yes

    Text #2
    ID                          : 5
    Format                      : UTF-8
    Codec ID                    : S_TEXT/UTF8
    Codec ID/Info               : UTF-8 Plain Text
    Duration                    : 1 h 45 min
    Bit rate                    : 89 b/s
    Count of elements           : 1900
    Stream size                 : 69.2 KiB (0%)
    Title                       : Español-SRT [CinemaniaHDD]
    Language                    : Spanish
    Default                     : No
    Forced                      : No

    Text #3
    ID                          : 6
    Format                      : PGS
    Muxing mode                 : zlib
    Codec ID                    : S_HDMV/PGS
    Codec ID/Info               : Picture based subtitle format used on BDs/HD-DVDs
    Duration                    : 1 h 45 min
    Bit rate                    : 58.5 kb/s
    Count of elements           : 4270
    Stream size                 : 44.2 MiB (0%)
    Title                       : Ingles [CinemaniaHDD]
    Language                    : English
    Default                     : No
    Forced                      : No

    Menu
    00:00:00.000                : Chapter 01
    00:05:09.100                : Chapter 02
    00:08:43.815                : Chapter 03
    00:14:29.702                : Chapter 04
    00:21:25.701                : Chapter 05
    00:24:06.028                : Chapter 06
    00:28:25.245                : Chapter 07
    00:34:21.810                : Chapter 08
    00:39:40.837                : Chapter 09
    00:44:10.731                : Chapter 10
    00:48:47.967                : Chapter 11
    00:52:47.748                : Chapter 12
    00:56:18.375                : Chapter 13
    01:00:17.739                : Chapter 14
    01:04:41.920                : Chapter 15
    01:09:13.816                : Chapter 16
    01:15:13.300                : Chapter 17
    01:19:14.083                : Chapter 18
    01:23:59.326                : Chapter 19
    01:28:06.406                : Chapter 20
    01:33:07.415                : Chapter 21
    01:39:19.954                : Chapter 22
    01:44:22.506                : Chapter 23
    01:46:13.993                : Chapter 24

  • Peso: 29.5 GiB

Sinopsis

Descargar Free Guy Tomando El Control (2021) REMUX 1080p Latino. Guy (Ryan Reynolds) trabaja como cajero de un banco, y es un tipo alegre y solitario al que nada la amarga el día. Incluso si le utilizan como rehén durante un atraco a su banco, él sigue sonriendo como si nada. Pero un día se da cuenta de que Free City no es exactamente la ciudad que él creía. Guy va a descubrir que en realidad es un personaje no jugable dentro de un brutal videojuego.

Español Latino AC3 2.0 WebDL – Ingles DTS-HD 7.1 BD

Ficha técnica

Video trailer de la película

Enlaces de descarga

Rip de Bluray

Descargar Free Guy: Tomando El Control (2021) REMUX 1080p Latino




Aportes de DPeliculasHDmega la pass es:dpeliculashdmega.org Aportes de CinemaniaHD la pass es:cinemaniahdd.com

Películas relacionadas

  • Paradise Highway (2022) REMUX 1080p Latino

    Paradise Highway (2022) REMUX 1080p Latino

    2022
    Paradise Highway (2022) REMUX 1080p Latino

    1h 55m 2022

    Descargar Paradise Highway (2022) REMUX 1080p Latino. Un camionero se ha visto obligado a pasar de contrabando...

    Director: Anna Gutto

    Género: Crimen

    Actores: Xavier Scott Evans

  • Shotgun Wedding (2022) AMZN WEB-DL 1080p Latino

    Shotgun Wedding (2022) AMZN WEB-DL 1080p Latino

    2022
    Shotgun Wedding (2022) AMZN WEB-DL 1080p Latino

    1h 41m 2022

    Darcy y Tom reúnen a sus familias para la boda de destino definitiva, pero cuando toman como rehenes...

    Director: Jason Moore

    Género: Acción

    Actores: Steve Coulter

  • M3GAN (2023) AMZN WEB-DL 4K UHD HDR Latino

    M3GAN (2023) AMZN WEB-DL 4K UHD HDR Latino

    2022
    M3GAN (2023) AMZN WEB-DL 4K UHD HDR Latino

    1h 42m 2022

    Descargar M3GAN (2023) AMZN WEB-DL 4K UHD HDR Latino. Cuando Gemma se convierte en la cuidadora de su...

    Director: Stephen W. Moore

    Género: 4K HDR

    Actores: Violet McGraw

  • M3GAN (2022) MA WEB-DL 1080p Latino

    M3GAN (2022) MA WEB-DL 1080p Latino

    2022
    M3GAN (2022) MA WEB-DL 1080p Latino

    1h 42m 2022

    Descargar M3GAN (2022) MA WEB-DL 1080p Latino. Cuando Gemma se convierte en la cuidadora de su sobrina...

    Director: Stephen W. Moore

    Género: Ciencia ficción

    Actores: Violet McGraw

descargar Free Guy: Tomando El Control (2021) REMUX 1080p Latino Full 1080p 1080p gratis, Free Guy: Tomando El Control (2021) REMUX 1080p Latino Full 1080p mega 1 link, Free Guy: Tomando El Control (2021) REMUX 1080p Latino Full 1080p pelicula completa, descargar Free Guy: Tomando El Control (2021) REMUX 1080p Latino Full 1080p gratis en mega.

Free Guy: Tomando El Control (2021) REMUX 1080p Latino pelicula full hd, Free Guy: Tomando El Control (2021) REMUX 1080p Latino mega latino, Free Guy: Tomando El Control (2021) REMUX 1080p Latino 4k latino, Free Guy: Tomando El Control (2021) REMUX 1080p Latino pelicula completa, Free Guy: Tomando El Control (2021) REMUX 1080p Latino descargar gratis, descargar Free Guy: Tomando El Control (2021) REMUX 1080p Latino pelicula latino, Free Guy: Tomando El Control (2021) REMUX 1080p Latino 1 link mega, Free Guy: Tomando El Control (2021) REMUX 1080p Latino 1 link google drive, Free Guy: Tomando El Control (2021) REMUX 1080p Latino hd 1080p latino.