×

¿Problemas para descargar con Mozilla, EDGE? Deshabilita la opción "Abrir vinculos en una pestaña nueva" tal como lo muestra ésta imagen.

Free Guy: Tomando El Control (2021) HD 1080p Latino

326 vistas

Información de Free Guy: Tomando El Control (2021) HD 1080p Latino

Datos de la película

  • Calidad: 1080p
  • Audio: Español Latino AC3 2.0 WEB-DL - Ingles AC3 5.1 BLURAY
  • Subtitulos: Español Latino SRT- FORZADOS SRT
  • Resolución: 1920x804p
  • Formato: MKV
  • Codec: H.264
  • Encoder: Melkor
  • Mediainfo: Clic para Mostrar Datos Ver
  • Free Guy Tomando El Control (2021) HD 1080p Latino.mkv
    Format                      : Matroska
    Format version              : Version 4
    File size                   : 3.75 GiB
    Duration                    : 1 h 54 min
    Overall bit rate            : 4 666 kb/s
    Movie name                  : Free Guy (2021) CinemaniaHDD.Net
    Encoded date                : UTC 2021-09-28 15:49:30
    Writing application         : mkvmerge v56.1.0 ('My Friend') 64-bit
    Writing library             : libebml v1.4.2 + libmatroska v1.6.4
    Attachments                 : CINEMANIAHD.png

    Video
    ID                          : 1
    Format                      : AVC
    Format/Info                 : Advanced Video Codec
    Format profile              : High@L4.1
    Format settings             : CABAC / 5 Ref Frames
    Format settings, CABAC      : Yes
    Format settings, Reference  : 5 frames
    Codec ID                    : V_MPEG4/ISO/AVC
    Duration                    : 1 h 54 min
    Bit rate                    : 3 767 kb/s
    Width                       : 1 920 pixels
    Height                      : 804 pixels
    Display aspect ratio        : 2.40:1
    Frame rate mode             : Constant
    Frame rate                  : 23.976 (24000/1001) FPS
    Color space                 : YUV
    Chroma subsampling          : 4:2:0
    Bit depth                   : 8 bits
    Scan type                   : Progressive
    Bits/(Pixel*Frame)          : 0.102
    Stream size                 : 3.03 GiB (81%)
    Title                       : HD1080p [CinemaniaHDD]
    Writing library             : x264 core 164 r3065 ae03d92
    Encoding settings           : cabac=1 / ref=5 / deblock=1:-3:-3 / analyse=0x3:0x133 / me=umh / subme=11 / psy=1 / psy_rd=1.00:0.00 / mixed_ref=1 / me_range=32 / chroma_me=1 / trellis=2 / 8x8dct=1 / cqm=0 / deadzone=21,11 / fast_pskip=0 / chroma_qp_offset=-2 / threads=18 / lookahead_threads=1 / sliced_threads=0 / nr=0 / decimate=0 / interlaced=0 / bluray_compat=0 / constrained_intra=0 / bframes=5 / b_pyramid=2 / b_adapt=2 / b_bias=0 / direct=3 / weightb=1 / open_gop=0 / weightp=2 / keyint=250 / keyint_min=23 / scenecut=40 / intra_refresh=0 / rc_lookahead=60 / rc=crf / mbtree=1 / crf=22.0 / qcomp=0.70 / qpmin=0 / qpmax=26 / qpstep=4 / ip_ratio=1.40 / aq=1:1.00
    Default                     : Yes
    Forced                      : Yes

    Audio #1
    ID                          : 2
    Format                      : AC-3
    Format/Info                 : Audio Coding 3
    Commercial name             : Dolby Digital
    Codec ID                    : A_AC3
    Duration                    : 1 h 54 min
    Bit rate mode               : Constant
    Bit rate                    : 256 kb/s
    Channel(s)                  : 2 channels
    Channel layout              : L R
    Sampling rate               : 48.0 kHz
    Frame rate                  : 31.250 FPS (1536 SPF)
    Compression mode            : Lossy
    Stream size                 : 211 MiB (5%)
    Title                       : Español Latino [CinemaniaHDD]
    Language                    : Spanish
    Service kind                : Complete Main
    Default                     : Yes
    Forced                      : Yes

    Audio #2
    ID                          : 3
    Format                      : AC-3
    Format/Info                 : Audio Coding 3
    Commercial name             : Dolby Digital
    Codec ID                    : A_AC3
    Duration                    : 1 h 54 min
    Bit rate mode               : Constant
    Bit rate                    : 640 kb/s
    Channel(s)                  : 6 channels
    Channel layout              : L R C LFE Ls Rs
    Sampling rate               : 48.0 kHz
    Frame rate                  : 31.250 FPS (1536 SPF)
    Compression mode            : Lossy
    Stream size                 : 526 MiB (14%)
    Title                       : Ingles [CinemaniaHDD]
    Language                    : English
    Service kind                : Complete Main
    Default                     : No
    Forced                      : No

    Text #1
    ID                          : 4
    Format                      : UTF-8
    Codec ID                    : S_TEXT/UTF8
    Codec ID/Info               : UTF-8 Plain Text
    Duration                    : 1 h 39 min
    Bit rate                    : 1 b/s
    Count of elements           : 28
    Stream size                 : 890 Bytes (0%)
    Title                       : Forzados-SRT [CinemaniaHDD]
    Language                    : Spanish
    Default                     : Yes
    Forced                      : Yes

    Text #2
    ID                          : 5
    Format                      : UTF-8
    Codec ID                    : S_TEXT/UTF8
    Codec ID/Info               : UTF-8 Plain Text
    Duration                    : 1 h 45 min
    Bit rate                    : 89 b/s
    Count of elements           : 1900
    Stream size                 : 69.2 KiB (0%)
    Title                       : Español-SRT [CinemaniaHDD]
    Language                    : Spanish
    Default                     : No
    Forced                      : No

    Text #3
    ID                          : 6
    Format                      : UTF-8
    Codec ID                    : S_TEXT/UTF8
    Codec ID/Info               : UTF-8 Plain Text
    Duration                    : 1 h 45 min
    Bit rate                    : 81 b/s
    Count of elements           : 1891
    Stream size                 : 62.8 KiB (0%)
    Title                       : Ingles-SRT [CinemaniaHDD]
    Language                    : English
    Default                     : No
    Forced                      : No

    Menu
    00:00:00.000                : Chapter 01
    00:05:09.100                : Chapter 02
    00:08:43.815                : Chapter 03
    00:14:29.702                : Chapter 04
    00:21:25.701                : Chapter 05
    00:24:06.028                : Chapter 06
    00:28:25.245                : Chapter 07
    00:34:21.810                : Chapter 08
    00:39:40.837                : Chapter 09
    00:44:10.731                : Chapter 10
    00:48:47.967                : Chapter 11
    00:52:47.748                : Chapter 12
    00:56:18.375                : Chapter 13
    01:00:17.739                : Chapter 14
    01:04:41.920                : Chapter 15
    01:09:13.816                : Chapter 16
    01:15:13.300                : Chapter 17
    01:19:14.083                : Chapter 18
    01:23:59.326                : Chapter 19
    01:28:06.406                : Chapter 20
    01:33:07.415                : Chapter 21
    01:39:19.954                : Chapter 22
    01:44:22.506                : Chapter 23
    01:46:13.993                : Chapter 24

  • Peso: 3.75 GiB

Sinopsis

Descargar Free Guy: Tomando El Control (2021) HD 1080p Latino. Guy (Ryan Reynolds) trabaja como cajero de un banco, y es un tipo alegre y solitario al que nada la amarga el día. Incluso si le utilizan como rehén durante un atraco a su banco, él sigue sonriendo como si nada. Pero un día se da cuenta de que Free City no es exactamente la ciudad que él creía. Guy va a descubrir que en realidad es un personaje no jugable dentro de un brutal videojuego.

Ficha técnica

Video trailer de la película

Enlaces de descarga

Rip de Bluray

Descargar Free Guy: Tomando El Control (2021) HD 1080p Latino




Aportes de DPeliculasHDmega la pass es:dpeliculashdmega.org Aportes de CinemaniaHD la pass es:cinemaniahdd.com

Películas relacionadas

  • Borrego: Sal Del Camino (2022) HD 1080p Latino

    Borrego: Sal Del Camino (2022) HD 1080p Latino

    2022
    Borrego: Sal Del Camino (2022) HD 1080p Latino

    1h 42m 2022

    Descargar Borrego: Sal Del Camino (2022) HD 1080p Latino. Una joven botánica se traslada a un pequeño...

    Director: Jesse Harris

    Género: Crimen

    Actores: Olivia Trujillo

  • Tren Bala (2022) WEB-DL 4K UHD HDR Latino

    Tren Bala (2022) WEB-DL 4K UHD HDR Latino

    2022
    Tren Bala (2022) WEB-DL 4K UHD HDR Latino

    2h 7m 2022

    Descargar Tren Bala (2022) WEB-DL 4K UHD HDR Latino. El desafortunado asesino "Catarina" está decidido...

    Director: Paul Barry

    Género: 4K HDR

    Actores: Zooey Miyoshi

  • Tren Bala (2022) AMZN WEB-DL 1080p Latino

    Tren Bala (2022) AMZN WEB-DL 1080p Latino

    2022
    Tren Bala (2022) AMZN WEB-DL 1080p Latino

    2h 7m 2022

    Descargar Tren Bala (2022) AMZN WEB-DL 1080p Latino. Cinco asesinos a sueldo se encuentran a bordo de...

    Director: Paul Barry

    Género: Acción

    Actores: Zooey Miyoshi

  • Rick y Morty (2022) Temporada 6 WEB-DL 1080p Latino

    Rick y Morty (2022) Temporada 6 WEB-DL 1080p Latino

    2013
    Rick y Morty (2022) Temporada 6 WEB-DL 1080p Latino

    0h 22m 2013

    Comedia animada que narra las aventuras de un científico loco Rick Sánchez, que regresa después de...

    Director: Justin Roiland

    Género: Action & Adventure

    Actores: Spencer Grammer

descargar Free Guy: Tomando El Control (2021) HD 1080p Latino 1080p 1080p gratis, Free Guy: Tomando El Control (2021) HD 1080p Latino 1080p mega 1 link, Free Guy: Tomando El Control (2021) HD 1080p Latino 1080p pelicula completa, descargar Free Guy: Tomando El Control (2021) HD 1080p Latino 1080p gratis en mega.

Free Guy: Tomando El Control (2021) HD 1080p Latino pelicula full hd, Free Guy: Tomando El Control (2021) HD 1080p Latino mega latino, Free Guy: Tomando El Control (2021) HD 1080p Latino 4k latino, Free Guy: Tomando El Control (2021) HD 1080p Latino pelicula completa, Free Guy: Tomando El Control (2021) HD 1080p Latino descargar gratis, descargar Free Guy: Tomando El Control (2021) HD 1080p Latino pelicula latino, Free Guy: Tomando El Control (2021) HD 1080p Latino 1 link mega, Free Guy: Tomando El Control (2021) HD 1080p Latino 1 link google drive, Free Guy: Tomando El Control (2021) HD 1080p Latino hd 1080p latino.
Comentarios 0