×

¿Problemas para descargar con Mozilla, EDGE? Deshabilita la opción "Abrir vinculos en una pestaña nueva" tal como lo muestra ésta imagen.

Freddy’s Dead The Final Nightmare (1991) REMUX 1080p Latino

364 vistas

Información de Freddy’s Dead The Final Nightmare (1991) REMUX 1080p Latino

Datos de la película

  • Calidad: Full 1080p
  • Audio: Español Latino AC3 5.1 BLURAY - Ingles DTS 5.1 BLURAY
  • Subtitulos: Español Latino SRT
  • Resolución: 1920x1080p
  • Formato: MKV
  • Codec: H.264
  • Encoder: Dracarys
  • Mediainfo: Clic para Mostrar Datos Ver
  • Format                      : Matroska
    Format version              : Version 4
    File size                   : 13.7 GiB
    Duration                    : 1 h 29 min
    Overall bit rate mode       : Variable
    Overall bit rate            : 22.0 Mb/s
    Movie name                  : CinemaniaHDD.net
    Encoded date                : UTC 2020-05-05 04:02:21
    Writing application         : mkvmerge v38.0.0 ('The Silent Type') 64-bit
    Writing library             : libebml v1.3.9 + libmatroska v1.5.2

    Video
    ID                          : 1
    Format                      : AVC
    Format/Info                 : Advanced Video Codec
    Format profile              : High@L4
    Format settings             : CABAC / 2 Ref Frames
    Format settings, CABAC      : Yes
    Format settings, Reference  : 2 frames
    Format settings, GOP        : M=1, N=10
    Codec ID                    : V_MPEG4/ISO/AVC
    Duration                    : 1 h 29 min
    Bit rate mode               : Variable
    Bit rate                    : 17.2 Mb/s
    Width                       : 1 920 pixels
    Height                      : 1 080 pixels
    Display aspect ratio        : 16:9
    Frame rate mode             : Constant
    Frame rate                  : 23.976 (24000/1001) FPS
    Color space                 : YUV
    Chroma subsampling          : 4:2:0
    Bit depth                   : 8 bits
    Scan type                   : Progressive
    Bits/(Pixel*Frame)          : 0.346
    Stream size                 : 10.7 GiB (78%)
    Language                    : English
    Default                     : No
    Forced                      : No

    Audio #1
    ID                          : 2
    Format                      : AC-3
    Format/Info                 : Audio Coding 3
    Commercial name             : Dolby Digital
    Codec ID                    : A_AC3
    Duration                    : 1 h 29 min
    Bit rate mode               : Constant
    Bit rate                    : 448 kb/s
    Channel(s)                  : 6 channels
    Channel layout              : L R C LFE Ls Rs
    Sampling rate               : 48.0 kHz
    Frame rate                  : 31.250 FPS (1536 SPF)
    Compression mode            : Lossy
    Stream size                 : 286 MiB (2%)
    Language                    : Spanish
    Service kind                : Complete Main
    Default                     : Yes
    Forced                      : No

    Audio #2
    ID                          : 3
    Format                      : DTS XLL
    Format/Info                 : Digital Theater Systems
    Commercial name             : DTS-HD Master Audio
    Codec ID                    : A_DTS
    Duration                    : 1 h 29 min
    Bit rate mode               : Variable
    Bit rate                    : 4 284 kb/s
    Channel(s)                  : 6 channels
    Channel layout              : C L R Ls Rs LFE
    Sampling rate               : 48.0 kHz
    Frame rate                  : 93.750 FPS (512 SPF)
    Bit depth                   : 24 bits
    Compression mode            : Lossless
    Stream size                 : 2.67 GiB (20%)
    Language                    : English
    Default                     : No
    Forced                      : No

    Text #1
    ID                          : 4
    Format                      : UTF-8
    Codec ID                    : S_TEXT/UTF8
    Codec ID/Info               : UTF-8 Plain Text
    Duration                    : 1 h 28 min
    Bit rate                    : 38 b/s
    Count of elements           : 825
    Stream size                 : 24.8 KiB (0%)
    Language                    : Spanish
    Default                     : No
    Forced                      : No

    Text #2
    ID                          : 5
    Format                      : PGS
    Muxing mode                 : zlib
    Codec ID                    : S_HDMV/PGS
    Codec ID/Info               : Picture based subtitle format used on BDs/HD-DVDs
    Duration                    : 1 h 28 min
    Bit rate                    : 22.0 kb/s
    Count of elements           : 1650
    Stream size                 : 14.0 MiB (0%)
    Language                    : Spanish
    Default                     : No
    Forced                      : No

    Menu
    00:00:00.000                : en:Opening Titles/Freefall
    00:04:45.285                : en:Welcome to Freddy's World
    00:08:23.503                : en:Youth Services
    00:12:56.776                : en:The Dream Doctor
    00:14:31.204                : en:"How Long Have You Been Awake?"
    00:15:43.109                : en:Free Me
    00:19:00.848                : en:Dream Connections
    00:20:25.558                : en:Springwood's Out of Order
    00:24:34.973                : en:"Freddy Happened Here"
    00:29:40.153                : en:Coming Home to Elm Street
    00:31:46.321                : en:"Nice Hearing From You"
    00:39:35.039                : en:The Empty Orphanage
    00:42:09.277                : en:"Let Us Trip Out"
    00:46:23.906                : en:"I Have to Go in"
    00:49:28.048                : en:It's A Girl!
    00:54:46.492                : en:"There's Been Contact"
    00:58:12.322                : en:"Time to Start All Over Again"
    01:02:32.916                : en:"Daddy's Home"
    01:05:41.396                : en:"Sticks and Stones"
    01:08:32.900                : en:20/20 Vision
    01:10:37.650                : en:A Walk Down Memory Lane
    01:17:34.108                : en:"Freddy's Dead"
    01:24:27.562                : en:End Credits

  • Peso: 13.7 GiB

Sinopsis

Después de diez años, Freddy Krueger vuelve a sembrar el pánico entre los adolescentes de Springswood. Utiliza para su venganza a un joven amnésico que le servirá para revitalizar sus poderes y localizar a su propia hija.

Ficha técnica

Video trailer de la película

Enlaces de descarga

Rip de Bluray

Descargar Freddy’s Dead The Final Nightmare (1991) REMUX 1080p Latino




Aportes de DPeliculasHDmega la pass es:dpeliculashdmega.org Aportes de CinemaniaHD la pass es:cinemaniahdd.com
Guardado en : Comedia , Reality , Suspenso , Terror

Películas relacionadas

  • Shotgun Wedding (2022) AMZN WEB-DL 1080p Latino

    Shotgun Wedding (2022) AMZN WEB-DL 1080p Latino

    2022
    Shotgun Wedding (2022) AMZN WEB-DL 1080p Latino

    1h 41m 2022

    Darcy y Tom reúnen a sus familias para la boda de destino definitiva, pero cuando toman como rehenes...

    Director: Jason Moore

    Género: Acción

    Actores: Steve Coulter

  • M3GAN (2023) AMZN WEB-DL 4K UHD HDR Latino

    M3GAN (2023) AMZN WEB-DL 4K UHD HDR Latino

    2022
    M3GAN (2023) AMZN WEB-DL 4K UHD HDR Latino

    1h 42m 2022

    Descargar M3GAN (2023) AMZN WEB-DL 4K UHD HDR Latino. Cuando Gemma se convierte en la cuidadora de su...

    Director: Stephen W. Moore

    Género: 4K HDR

    Actores: Violet McGraw

  • M3GAN (2022) MA WEB-DL 1080p Latino

    M3GAN (2022) MA WEB-DL 1080p Latino

    2022
    M3GAN (2022) MA WEB-DL 1080p Latino

    1h 42m 2022

    Descargar M3GAN (2022) MA WEB-DL 1080p Latino. Cuando Gemma se convierte en la cuidadora de su sobrina...

    Director: Stephen W. Moore

    Género: Ciencia ficción

    Actores: Violet McGraw

  • Mar de sangre (2022) WEB-DL 1080p Latino

    Mar de sangre (2022) WEB-DL 1080p Latino

    2022
    Mar de sangre (2022) WEB-DL 1080p Latino

    1h 27m 2022

    Descargar Mar de sangre (2022) WEB-DL 1080p Latino. Un grupo de amigos que disfrutan de un fin de semana...

    Director: James Nunn

    Género: Acción

    Actores: Thomas Michael Flynn

descargar Freddy’s Dead The Final Nightmare (1991) REMUX 1080p Latino Full 1080p 1080p gratis, Freddy’s Dead The Final Nightmare (1991) REMUX 1080p Latino Full 1080p mega 1 link, Freddy’s Dead The Final Nightmare (1991) REMUX 1080p Latino Full 1080p pelicula completa, descargar Freddy’s Dead The Final Nightmare (1991) REMUX 1080p Latino Full 1080p gratis en mega.

Freddy’s Dead The Final Nightmare (1991) REMUX 1080p Latino pelicula full hd, Freddy’s Dead The Final Nightmare (1991) REMUX 1080p Latino mega latino, Freddy’s Dead The Final Nightmare (1991) REMUX 1080p Latino 4k latino, Freddy’s Dead The Final Nightmare (1991) REMUX 1080p Latino pelicula completa, Freddy’s Dead The Final Nightmare (1991) REMUX 1080p Latino descargar gratis, descargar Freddy’s Dead The Final Nightmare (1991) REMUX 1080p Latino pelicula latino, Freddy’s Dead The Final Nightmare (1991) REMUX 1080p Latino 1 link mega, Freddy’s Dead The Final Nightmare (1991) REMUX 1080p Latino 1 link google drive, Freddy’s Dead The Final Nightmare (1991) REMUX 1080p Latino hd 1080p latino.
Comentarios 0