×

¿Problemas para descargar con Mozilla, EDGE? Deshabilita la opción "Abrir vinculos en una pestaña nueva" tal como lo muestra ésta imagen.

Viernes 13: Freddy vs. Jason (2003) REMUX 1080p Latino

329 vistas

Información de Viernes 13: Freddy vs. Jason (2003) REMUX 1080p Latino

Datos de la película

  • Calidad: Full 1080p
  • Audio: Español Latino AC3 2.0 BLURAY - Ingles DTS 5.1 BLURAY
  • Subtitulos: Español Latino PGS - Ingles PGS
  • Resolución: 1920x1080p
  • Formato: MKV
  • Codec: H.264
  • Encoder: CinefiloCool
  • Mediainfo: Clic para Mostrar Datos Ver
  • Freddy vs. Jason (2003) REMUX 1080p Latino-CMHDD.mkv
    Format                      : Matroska
    Format version              : Version 4
    File size                   : 19.2 GiB
    Duration                    : 1 h 37 min
    Overall bit rate mode       : Variable
    Overall bit rate            : 28.2 Mb/s
    Movie name                  : Freddy vs. Jason (2003) CinemaniaHDD.Net
    Encoded date                : UTC 2020-10-22 06:20:31
    Writing application         : mkvmerge v51.0.0 ('I Wish') 64-bit
    Writing library             : libebml v1.4.0 + libmatroska v1.6.2
    Attachments                 : CINEMANIAHD.png

    Video
    ID                          : 1
    ID in the original source m : 4113 (0x1011)
    Format                      : VC-1
    Format profile              : Advanced@L3
    Codec ID                    : V_MS/VFW/FOURCC / WVC1
    Codec ID/Hint               : Microsoft
    Duration                    : 1 h 37 min
    Bit rate                    : 23.3 Mb/s
    Width                       : 1 920 pixels
    Height                      : 1 080 pixels
    Display aspect ratio        : 16:9
    Frame rate mode             : Constant
    Frame rate                  : 23.976 (24000/1001) FPS
    Color space                 : YUV
    Chroma subsampling          : 4:2:0
    Bit depth                   : 8 bits
    Scan type                   : Progressive
    Compression mode            : Lossy
    Bits/(Pixel*Frame)          : 0.468
    Stream size                 : 15.8 GiB (82%)
    Title                       : REMUX 1080p [CinemaniaHDD]
    Default                     : Yes
    Forced                      : No
    Original source medium      : Blu-ray

    Audio #1
    ID                          : 2
    ID in the original source m : 4354 (0x1102)
    Format                      : AC-3
    Format/Info                 : Audio Coding 3
    Commercial name             : Dolby Digital
    Codec ID                    : A_AC3
    Duration                    : 1 h 37 min
    Bit rate mode               : Constant
    Bit rate                    : 192 kb/s
    Channel(s)                  : 2 channels
    Channel layout              : L R
    Sampling rate               : 48.0 kHz
    Frame rate                  : 31.250 FPS (1536 SPF)
    Compression mode            : Lossy
    Stream size                 : 134 MiB (1%)
    Title                       : Español Latino [CinemaniaHDD]
    Language                    : Spanish
    Service kind                : Complete Main
    Default                     : Yes
    Forced                      : No
    Original source medium      : Blu-ray

    Audio #2
    ID                          : 3
    ID in the original source m : 4352 (0x1100)
    Format                      : DTS ES XXCH XLL
    Format/Info                 : Digital Theater Systems
    Commercial name             : DTS-HD Master Audio
    Codec ID                    : A_DTS
    Duration                    : 1 h 37 min
    Bit rate mode               : Variable
    Bit rate                    : 4 749 kb/s
    Channel(s)                  : 7 channels
    Channel layout              : C L R Ls Rs LFE Cb
    Sampling rate               : 48.0 kHz
    Frame rate                  : 93.750 FPS (512 SPF)
    Bit depth                   : 24 bits
    Compression mode            : Lossless
    Stream size                 : 3.23 GiB (17%)
    Title                       : Ingles [CinemaniaHDD]
    Language                    : English
    Default                     : No
    Forced                      : No
    Original source medium      : Blu-ray

    Text #1
    ID                          : 4
    ID in the original source m : 4610 (0x1202)
    Format                      : PGS
    Muxing mode                 : zlib
    Codec ID                    : S_HDMV/PGS
    Codec ID/Info               : Picture based subtitle format used on BDs/HD-DVDs
    Duration                    : 1 h 36 min
    Bit rate                    : 23.3 kb/s
    Count of elements           : 1700
    Stream size                 : 16.2 MiB (0%)
    Title                       : Español-PGS [CinemaniaHDD]
    Language                    : Spanish
    Default                     : No
    Forced                      : No
    Original source medium      : Blu-ray

    Text #2
    ID                          : 5
    ID in the original source m : 4608 (0x1200)
    Format                      : PGS
    Muxing mode                 : zlib
    Codec ID                    : S_HDMV/PGS
    Codec ID/Info               : Picture based subtitle format used on BDs/HD-DVDs
    Duration                    : 1 h 36 min
    Bit rate                    : 27.6 kb/s
    Count of elements           : 2004
    Stream size                 : 19.1 MiB (0%)
    Title                       : Ingles-PGS [CinemaniaHDD]
    Language                    : English
    Default                     : No
    Forced                      : No
    Original source medium      : Blu-ray

    Text #3
    ID                          : 6
    Format                      : UTF-8
    Codec ID                    : S_TEXT/UTF8
    Codec ID/Info               : UTF-8 Plain Text
    Duration                    : 1 h 13 min
    Bit rate                    : 0 b/s
    Count of elements           : 6
    Stream size                 : 148 Bytes (0%)
    Title                       : Forzados-SRT [CinemaniaHDD]
    Language                    : Spanish
    Default                     : Yes
    Forced                      : No

    Text #4
    ID                          : 7
    Format                      : UTF-8
    Codec ID                    : S_TEXT/UTF8
    Codec ID/Info               : UTF-8 Plain Text
    Duration                    : 1 h 27 min
    Bit rate                    : 44 b/s
    Count of elements           : 955
    Stream size                 : 28.6 KiB (0%)
    Title                       : Español-SRT [CinemaniaHDD]
    Language                    : Spanish
    Default                     : No
    Forced                      : No

    Menu
    00:00:00.000                : en:Chapter 01
    00:02:56.176                : en:Chapter 02
    00:06:37.105                : en:Chapter 03
    00:14:42.047                : en:Chapter 04
    00:20:32.105                : en:Chapter 05
    00:23:56.685                : en:Chapter 06
    00:33:25.712                : en:Chapter 07
    00:43:58.802                : en:Chapter 08
    00:48:52.971                : en:Chapter 09
    00:52:14.756                : en:Chapter 10
    00:57:52.427                : en:Chapter 11
    01:04:04.257                : en:Chapter 12
    01:07:46.187                : en:Chapter 13
    01:17:09.666                : en:Chapter 14
    01:21:04.776                : en:Chapter 15
    01:26:43.615                : en:Chapter 16
    01:30:14.409                : en:Chapter 17

  • Peso: 19.2 GiB

Sinopsis

Descargar Freddy vs. Jason (2003) REMUX 1080p Latino. Freddy Krueger necesita el miedo de la gente para regresar, por lo que decide resucitar al temible Jason. Pero el protagonista de «Viernes 13» no está dispuesto a dejarle el camino libre. Este formato que enfrenta a dos personajes míticos del celuloide no es nada nuevo en el cine: Frankenstein ya se encaró al hombre lobo en 1943 y 28 años más tarde resucitó para luchar contra Drácula. También, a lo largo del siglo XX, llegó el gigantesco Godzilla dispuesto a terminar con King Kong y una serie de mutantes que iban sembrando el pánico por Japón. En esta ocasión, fueron dos de los asesinos estrella de las películas de la década de 1980 los que se unieron. El resultado, el esperado: muertes, descuartizamientos y chicas ligeras de ropa.

Ficha técnica

Video trailer de la película

Enlaces de descarga

Rip de Bluray

Descargar Viernes 13: Freddy vs. Jason (2003) REMUX 1080p Latino




Aportes de DPeliculasHDmega la pass es:dpeliculashdmega.org Aportes de CinemaniaHD la pass es:cinemaniahdd.com
Guardado en : Remux , Terror

Películas relacionadas

  • Borrego: Sal Del Camino (2022) REMUX 1080p Latino

    Borrego: Sal Del Camino (2022) REMUX 1080p Latino

    2022
    Borrego: Sal Del Camino (2022) REMUX 1080p Latino

    1h 42m 2022

    Descargar Borrego: Sal Del Camino (2022) REMUX 1080p Latino. Una joven botánica se traslada a un pequeño...

    Director: Jesse Harris

    Género: Crimen

    Actores: Olivia Trujillo

  • Poltergeist (1982) REMUX 1080p Latino – CMHDD

    Poltergeist (1982) REMUX 1080p Latino – CMHDD

    1982
    Poltergeist (1982) REMUX 1080p Latino – CMHDD

    1h 54m 1982

    Una familia americana de clase media se traslada a vivir e una nueva casa en un aparentemente idílico...

    Director: Tobe Hooper

    Género: Terror

    Actores: Zelda Rubinstein

  • Poltergeist (1982) REMUX 4K Latino – CMHDD

    Poltergeist (1982) REMUX 4K Latino – CMHDD

    1982
    Poltergeist (1982) REMUX 4K Latino – CMHDD

    1h 54m 1982

    Una familia americana de clase media se traslada a vivir e una nueva casa en un aparentemente idílico...

    Director: Tobe Hooper

    Género: Terror

    Actores: Zelda Rubinstein

  • La familia Monster (2022) REMUX 1080p Latino

    La familia Monster (2022) REMUX 1080p Latino

    2022
    La familia Monster (2022) REMUX 1080p Latino

    1h 49m 2022

    Descargar La familia Monster (2022) REMUX 1080p Latino. Reboot de "The Munsters", que sigue las desventuras...

    Director: Rob Zombie

    Género: Comedia

    Actores: Tomas Boykin

descargar Viernes 13: Freddy vs. Jason (2003) REMUX 1080p Latino Full 1080p 1080p gratis, Viernes 13: Freddy vs. Jason (2003) REMUX 1080p Latino Full 1080p mega 1 link, Viernes 13: Freddy vs. Jason (2003) REMUX 1080p Latino Full 1080p pelicula completa, descargar Viernes 13: Freddy vs. Jason (2003) REMUX 1080p Latino Full 1080p gratis en mega.

Viernes 13: Freddy vs. Jason (2003) REMUX 1080p Latino pelicula full hd, Viernes 13: Freddy vs. Jason (2003) REMUX 1080p Latino mega latino, Viernes 13: Freddy vs. Jason (2003) REMUX 1080p Latino 4k latino, Viernes 13: Freddy vs. Jason (2003) REMUX 1080p Latino pelicula completa, Viernes 13: Freddy vs. Jason (2003) REMUX 1080p Latino descargar gratis, descargar Viernes 13: Freddy vs. Jason (2003) REMUX 1080p Latino pelicula latino, Viernes 13: Freddy vs. Jason (2003) REMUX 1080p Latino 1 link mega, Viernes 13: Freddy vs. Jason (2003) REMUX 1080p Latino 1 link google drive, Viernes 13: Freddy vs. Jason (2003) REMUX 1080p Latino hd 1080p latino.
Comentarios 1
  • ocpgaiden - 23 octubre, 2020

    Gracias por Freddy vs Jason Remux, saludos