×

¿Problemas para descargar con Mozilla, EDGE? Deshabilita la opción "Abrir vinculos en una pestaña nueva" tal como lo muestra ésta imagen.

Freaks (2018) PLACEBO Full HD 1080p Latino

584 vistas

Información de Freaks (2018) PLACEBO Full HD 1080p Latino

Datos de la película

  • Calidad: Full 1080p
  • Audio: Español Latino AC3 2.0 WEB-DL - Ingles DTS 5.1 BLURAY
  • Subtitulos: Español Latino PGS - Ingles PGS
  • Resolución: 1920x1080p
  • Formato: MKV
  • Codec: H.264
  • Encoder: Melkor
  • Mediainfo: Clic para Mostrar Datos Ver
  • Freaks (2018) PLACEBO 1080p Latino.mkv
    Format                      : Matroska
    Format version              : Version 4
    File size                   : 5.12 GiB
    Duration                    : 1 h 45 min
    Overall bit rate            : 6 916 kb/s
    Movie name                  : Freaks (2018) CinemaniaHDD.Net
    Encoded date                : UTC 2022-07-28 02:36:23
    Writing application         : mkvmerge v56.1.0 ('My Friend') 64-bit
    Writing library             : libebml v1.4.2 + libmatroska v1.6.4
    Attachments                 : CINEMANIAHD.png

    Video
    ID                          : 1
    Format                      : AVC
    Format/Info                 : Advanced Video Codec
    Format profile              : High@L4.1
    Format settings             : CABAC / 4 Ref Frames
    Format settings, CABAC      : Yes
    Format settings, Reference  : 4 frames
    Codec ID                    : V_MPEG4/ISO/AVC
    Duration                    : 1 h 45 min
    Bit rate                    : 5 140 kb/s
    Width                       : 1 920 pixels
    Height                      : 1 080 pixels
    Display aspect ratio        : 16:9
    Frame rate mode             : Constant
    Frame rate                  : 23.976 (24000/1001) FPS
    Color space                 : YUV
    Chroma subsampling          : 4:2:0
    Bit depth                   : 8 bits
    Scan type                   : Progressive
    Bits/(Pixel*Frame)          : 0.103
    Stream size                 : 3.80 GiB (74%)
    Title                       : Full HD1080p [CinemaniaHDD]
    Writing library             : x264 core 163 r3059 b684ebe0
    Encoding settings           : cabac=1 / ref=4 / deblock=1:0:0 / analyse=0x3:0x133 / me=tesa / subme=11 / psy=1 / psy_rd=1.00:0.00 / mixed_ref=1 / me_range=24 / chroma_me=1 / trellis=2 / 8x8dct=1 / cqm=0 / deadzone=21,11 / fast_pskip=0 / chroma_qp_offset=-2 / threads=24 / lookahead_threads=6 / sliced_threads=0 / nr=0 / decimate=1 / interlaced=0 / bluray_compat=0 / constrained_intra=0 / bframes=16 / b_pyramid=2 / b_adapt=2 / b_bias=0 / direct=3 / weightb=1 / open_gop=0 / weightp=2 / keyint=240 / keyint_min=24 / scenecut=40 / intra_refresh=0 / rc_lookahead=60 / rc=crf / mbtree=1 / crf=19.0 / qcomp=0.60 / qpmin=0 / qpmax=69 / qpstep=4 / vbv_maxrate=62500 / vbv_bufsize=78125 / crf_max=0.0 / nal_hrd=none / filler=0 / ip_ratio=1.40 / aq=1:1.00
    Default                     : Yes
    Forced                      : Yes
    Color range                 : Limited
    Color primaries             : BT.709
    Transfer characteristics    : BT.709
    Matrix coefficients         : BT.709

    Audio #1
    ID                          : 2
    Format                      : AC-3
    Format/Info                 : Audio Coding 3
    Commercial name             : Dolby Digital
    Codec ID                    : A_AC3
    Duration                    : 1 h 44 min
    Bit rate mode               : Constant
    Bit rate                    : 256 kb/s
    Channel(s)                  : 2 channels
    Channel layout              : L R
    Sampling rate               : 48.0 kHz
    Frame rate                  : 31.250 FPS (1536 SPF)
    Compression mode            : Lossy
    Stream size                 : 192 MiB (4%)
    Title                       : Español Latino [CinemaniaHDD]
    Language                    : Spanish
    Service kind                : Complete Main
    Default                     : Yes
    Forced                      : Yes

    Audio #2
    ID                          : 3
    Format                      : DTS
    Format/Info                 : Digital Theater Systems
    Codec ID                    : A_DTS
    Duration                    : 1 h 44 min
    Bit rate mode               : Constant
    Bit rate                    : 1 509 kb/s
    Channel(s)                  : 6 channels
    Channel layout              : C L R Ls Rs LFE
    Sampling rate               : 48.0 kHz
    Frame rate                  : 93.750 FPS (512 SPF)
    Bit depth                   : 24 bits
    Compression mode            : Lossy
    Stream size                 : 1.11 GiB (22%)
    Title                       : Ingles [CinemaniaHDD]
    Language                    : English
    Default                     : No
    Forced                      : No

    Text #1
    ID                          : 4
    Format                      : PGS
    Muxing mode                 : zlib
    Codec ID                    : S_HDMV/PGS
    Codec ID/Info               : Picture based subtitle format used on BDs/HD-DVDs
    Duration                    : 1 h 39 min
    Bit rate                    : 31.5 kb/s
    Count of elements           : 2386
    Stream size                 : 22.4 MiB (0%)
    Title                       : Español-PGS [CinemaniaHDD]
    Language                    : Spanish
    Default                     : No
    Forced                      : No

    Text #2
    ID                          : 5
    Format                      : PGS
    Muxing mode                 : zlib
    Codec ID                    : S_HDMV/PGS
    Codec ID/Info               : Picture based subtitle format used on BDs/HD-DVDs
    Duration                    : 1 h 39 min
    Bit rate                    : 31.4 kb/s
    Count of elements           : 2964
    Stream size                 : 22.3 MiB (0%)
    Title                       : Ingles-PGS [CinemaniaHDD]
    Language                    : English
    Default                     : No
    Forced                      : No

    Text #3
    ID                          : 6
    Format                      : UTF-8
    Codec ID                    : S_TEXT/UTF8
    Codec ID/Info               : UTF-8 Plain Text
    Duration                    : 55 min 8 s
    Bit rate                    : 0 b/s
    Count of elements           : 10
    Stream size                 : 283 Bytes (0%)
    Title                       : Forzados-SRT [CinemaniaHDD]
    Language                    : Spanish
    Default                     : Yes
    Forced                      : Yes

    Text #4
    ID                          : 7
    Format                      : UTF-8
    Codec ID                    : S_TEXT/UTF8
    Codec ID/Info               : UTF-8 Plain Text
    Duration                    : 1 h 43 min
    Bit rate                    : 45 b/s
    Count of elements           : 1267
    Stream size                 : 34.4 KiB (0%)
    Title                       : Español-SRT [CinemaniaHDD]
    Language                    : Spanish
    Default                     : No
    Forced                      : No

    Menu
    00:00:00.000                : Chapter 1
    00:08:22.711                : Chapter 2
    00:18:52.381                : Chapter 3
    00:27:45.455                : Chapter 4
    00:36:26.601                : Chapter 5
    00:45:56.170                : Chapter 6
    00:52:59.802                : Chapter 7
    01:01:48.580                : Chapter 8
    01:09:45.348                : Chapter 9
    01:18:06.473                : Chapter 10
    01:27:45.844                : Chapter 11
    01:36:41.671                : Chapter 12

  • Peso: 5.12 GiB

Sinopsis

Descargar Freaks (2018) PLACEBO Full HD 1080p Latino. Un padre trastornado encierra a su hija de 7 años en una casa, advirtiéndola de los peligros que hay fuera. Pero el misterioso Sr. Snowcone la convence para que se escape y se una a él en una búsqueda profunda de lazos familiares, libertad y venganza.

Ficha técnica

Video trailer de la película

Enlaces de descarga

Rip de Bluray

Descargar Freaks (2018) PLACEBO Full HD 1080p Latino




Aportes de DPeliculasHDmega la pass es:dpeliculashdmega.org Aportes de CinemaniaHD la pass es:cinemaniahdd.com

Películas relacionadas

  • Emily la criminal (2022) HD 1080p Latino

    Emily la criminal (2022) HD 1080p Latino

    2022
    Emily la criminal (2022) HD 1080p Latino

    1h 37m 2022

    Descargar Emily la criminal (2022) HD 1080p Latino. Emily, que tiene una deuda estudiantil y está excluida...

    Director: John Patton Ford

    Género: Crimen

    Actores: Theo Rossi

  • Emily la criminal (2022) REMUX 1080p Latino

    Emily la criminal (2022) REMUX 1080p Latino

    2022
    Emily la criminal (2022) REMUX 1080p Latino

    1h 37m 2022

    Descargar Emily la criminal (2022) REMUX 1080p Latino. Emily, que tiene una deuda estudiantil y está...

    Director: John Patton Ford

    Género: Crimen

    Actores: Theo Rossi

  • Herencia peligrosa (2022) HD 1080p Latino

    Herencia peligrosa (2022) HD 1080p Latino

    2022
    Herencia peligrosa (2022) HD 1080p Latino

    1h 34m 2022

    Descargar Herencia peligrosa (2022) HD 1080p Latino. Tres ladrones se hacen con el yate de lujo de una...

    Director: Declan Whitebloom

    Género: Acción

    Actores: Vernon Davis

descargar Freaks (2018) PLACEBO Full HD 1080p Latino Full 1080p 1080p gratis, Freaks (2018) PLACEBO Full HD 1080p Latino Full 1080p mega 1 link, Freaks (2018) PLACEBO Full HD 1080p Latino Full 1080p pelicula completa, descargar Freaks (2018) PLACEBO Full HD 1080p Latino Full 1080p gratis en mega.

Freaks (2018) PLACEBO Full HD 1080p Latino pelicula full hd, Freaks (2018) PLACEBO Full HD 1080p Latino mega latino, Freaks (2018) PLACEBO Full HD 1080p Latino 4k latino, Freaks (2018) PLACEBO Full HD 1080p Latino pelicula completa, Freaks (2018) PLACEBO Full HD 1080p Latino descargar gratis, descargar Freaks (2018) PLACEBO Full HD 1080p Latino pelicula latino, Freaks (2018) PLACEBO Full HD 1080p Latino 1 link mega, Freaks (2018) PLACEBO Full HD 1080p Latino 1 link google drive, Freaks (2018) PLACEBO Full HD 1080p Latino hd 1080p latino.
Comentarios 0