×

¿Problemas para descargar con Mozilla, EDGE? Deshabilita la opción "Abrir vinculos en una pestaña nueva" tal como lo muestra ésta imagen.

Frankenweenie (2012) REMUX 1080p Latino – CMHDD

212 vistas

Información de Frankenweenie (2012) REMUX 1080p Latino – CMHDD

Datos de la película

  • Calidad: Full 1080p
  • Audio: Español Latino AC3 5.1 BLURAY - Ingles DTS-HD Master 7.1 BLURAY
  • Subtitulos: Español Latino PGS
  • Resolución: 1920x1080p
  • Formato: MKV
  • Codec: H.264
  • Encoder: Dracarys
  • Mediainfo: Clic para Mostrar Datos Ver
  • Format                      : Matroska
    Format version              : Version 4
    File size                   : 21.5 GiB
    Duration                    : 1 h 26 min
    Overall bit rate mode       : Variable
    Overall bit rate            : 35.4 Mb/s
    Movie name                  : Frankenweenie (2012) REMUX 1080p Latino - CMHDD
    Encoded date                : UTC 2021-02-24 21:06:01
    Writing application         : mkvmerge v51.0.0 ('I Wish') 64-bit
    Writing library             : libebml v1.4.0 + libmatroska v1.6.2

    Video
    ID                          : 1
    Format                      : AVC
    Format/Info                 : Advanced Video Codec
    Format profile              : High@L4.1
    Format settings             : CABAC / 3 Ref Frames
    Format settings, CABAC      : Yes
    Format settings, Reference  : 3 frames
    Format settings, GOP        : M=1, N=12
    Codec ID                    : V_MPEG4/ISO/AVC
    Duration                    : 1 h 26 min
    Bit rate mode               : Variable
    Bit rate                    : 29.8 Mb/s
    Maximum bit rate            : 31.0 Mb/s
    Width                       : 1 920 pixels
    Height                      : 1 080 pixels
    Display aspect ratio        : 16:9
    Frame rate mode             : Constant
    Frame rate                  : 23.976 (24000/1001) FPS
    Color space                 : YUV
    Chroma subsampling          : 4:2:0
    Bit depth                   : 8 bits
    Scan type                   : Progressive
    Bits/(Pixel*Frame)          : 0.599
    Stream size                 : 18.1 GiB (84%)
    Default                     : Yes
    Forced                      : No

    Audio #1
    ID                          : 2
    Format                      : AC-3
    Format/Info                 : Audio Coding 3
    Commercial name             : Dolby Digital
    Codec ID                    : A_AC3
    Duration                    : 1 h 26 min
    Bit rate mode               : Constant
    Bit rate                    : 640 kb/s
    Channel(s)                  : 6 channels
    Channel layout              : L R C LFE Ls Rs
    Sampling rate               : 48.0 kHz
    Frame rate                  : 31.250 FPS (1536 SPF)
    Compression mode            : Lossy
    Stream size                 : 398 MiB (2%)
    Language                    : Spanish
    Service kind                : Complete Main
    Default                     : Yes
    Forced                      : No

    Audio #2
    ID                          : 3
    Format                      : DTS XLL
    Format/Info                 : Digital Theater Systems
    Commercial name             : DTS-HD Master Audio
    Codec ID                    : A_DTS
    Duration                    : 1 h 26 min
    Bit rate mode               : Variable
    Bit rate                    : 4 976 kb/s
    Channel(s)                  : 8 channels
    Channel layout              : C L R LFE Lb Rb Lss Rss
    Sampling rate               : 48.0 kHz
    Frame rate                  : 93.750 FPS (512 SPF)
    Bit depth                   : 24 bits
    Compression mode            : Lossless
    Stream size                 : 3.02 GiB (14%)
    Language                    : English
    Default                     : No
    Forced                      : No

    Text
    ID                          : 4
    Format                      : PGS
    Muxing mode                 : zlib
    Codec ID                    : S_HDMV/PGS
    Codec ID/Info               : Picture based subtitle format used on BDs/HD-DVDs
    Duration                    : 1 h 18 min
    Bit rate                    : 17.7 kb/s
    Count of elements           : 1072
    Stream size                 : 9.86 MiB (0%)
    Language                    : Spanish
    Default                     : No
    Forced                      : No
     

  • Peso: 21.5 GiB

Sinopsis

De la mente del director Tim Burton (‘Alicia en el país de las maravillas’, ‘La leyenda de Sleepy Hollow’), surge ‘Frankenweenie’, la tierna historia de un chico y su mascota. Cuando el pequeño perro Sparky fallece, Víctor (su amo y amigo) trata de usar diversas técnicas científicas para intentar revivir al animal, y traerlo de vuelta al mundo de los vivos, todo ello mediante algunos ajustes corporales. Aunque el chico intenta que nadie vea a su «monstruo», el perro Sparky consigue escapar, los amigos del colegio del niño, sus profesores e incluso todos sus vecinos sabrán que construir una nueva vida puede llegar a ser algo terrible y escalofriante.

Ficha técnica

Video trailer de la película

Enlaces de descarga

Rip de Bluray

Descargar Frankenweenie (2012) REMUX 1080p Latino – CMHDD


Aportes de DPeliculasHDmega la pass es:dpeliculashdmega.org Aportes de CinemaniaHD la pass es:cinemaniahdd.com
Guardado en : Animación , Comedia , Familia

Películas relacionadas

descargar Frankenweenie (2012) REMUX 1080p Latino – CMHDD Full 1080p 1080p gratis, Frankenweenie (2012) REMUX 1080p Latino – CMHDD Full 1080p mega 1 link, Frankenweenie (2012) REMUX 1080p Latino – CMHDD Full 1080p pelicula completa, descargar Frankenweenie (2012) REMUX 1080p Latino – CMHDD Full 1080p gratis en mega.

Frankenweenie (2012) REMUX 1080p Latino – CMHDD pelicula full hd, Frankenweenie (2012) REMUX 1080p Latino – CMHDD mega latino, Frankenweenie (2012) REMUX 1080p Latino – CMHDD 4k latino, Frankenweenie (2012) REMUX 1080p Latino – CMHDD pelicula completa, Frankenweenie (2012) REMUX 1080p Latino – CMHDD descargar gratis, descargar Frankenweenie (2012) REMUX 1080p Latino – CMHDD pelicula latino, Frankenweenie (2012) REMUX 1080p Latino – CMHDD 1 link mega, Frankenweenie (2012) REMUX 1080p Latino – CMHDD 1 link google drive, Frankenweenie (2012) REMUX 1080p Latino – CMHDD hd 1080p latino.
Comentarios 0