×

¿Problemas para descargar con Mozilla, EDGE? Deshabilita la opción "Abrir vinculos en una pestaña nueva" tal como lo muestra ésta imagen.

Francotirador: misión secreta (2022) REMUX 1080p Latino

29 vistas

Información de Francotirador: misión secreta (2022) REMUX 1080p Latino

Datos de la película

  • Calidad: Full 1080p
  • Audio: Español Latino AC3 2.0 WEB-DL - Ingles DTS 5.1 BLURAY
  • Subtitulos: Español Latino PGS - Ingles PGS
  • Resolución: 1920x1080p
  • Formato: MKV
  • Codec: H.264
  • Encoder: Melkor
  • Mediainfo: Clic para Mostrar Datos Ver
  • Fracotirador. Mision Secreta (2022) REMUX 1080p Latino.mkv
    Format                      : Matroska
    Format version              : Version 4
    File size                   : 16.7 GiB
    Duration                    : 1 h 35 min
    Overall bit rate mode       : Variable
    Overall bit rate            : 25.0 Mb/s
    Movie name                  : Sniper. Rogue Mission (2022) CinemaniaHDD.Net
    Encoded date                : UTC 2022-08-24 19:22:20
    Writing application         : mkvmerge v56.1.0 ('My Friend') 64-bit
    Writing library             : libebml v1.4.2 + libmatroska v1.6.4
    Attachments                 : CINEMANIAHD.png

    Video
    ID                          : 1
    ID in the original source m : 4113 (0x1011)
    Format                      : AVC
    Format/Info                 : Advanced Video Codec
    Format profile              : High@L4.1
    Format settings             : CABAC / 2 Ref Frames
    Format settings, CABAC      : Yes
    Format settings, Reference  : 2 frames
    Codec ID                    : V_MPEG4/ISO/AVC
    Duration                    : 1 h 35 min
    Bit rate mode               : Variable
    Bit rate                    : 22.4 Mb/s
    Width                       : 1 920 pixels
    Height                      : 1 080 pixels
    Display aspect ratio        : 16:9
    Frame rate mode             : Constant
    Frame rate                  : 23.976 (24000/1001) FPS
    Color space                 : YUV
    Chroma subsampling          : 4:2:0
    Bit depth                   : 8 bits
    Scan type                   : Progressive
    Bits/(Pixel*Frame)          : 0.450
    Stream size                 : 15.0 GiB (90%)
    Title                       : REMUX HD1080p [CinemaniaHDD]
    Default                     : Yes
    Forced                      : Yes
    Original source medium      : Blu-ray

    Audio #1
    ID                          : 2
    Format                      : AC-3
    Format/Info                 : Audio Coding 3
    Commercial name             : Dolby Digital
    Codec ID                    : A_AC3
    Duration                    : 1 h 35 min
    Bit rate mode               : Constant
    Bit rate                    : 256 kb/s
    Channel(s)                  : 2 channels
    Channel layout              : L R
    Sampling rate               : 48.0 kHz
    Frame rate                  : 31.250 FPS (1536 SPF)
    Compression mode            : Lossy
    Stream size                 : 176 MiB (1%)
    Title                       : Español Latino [CinemaniaHDD]
    Language                    : Spanish
    Service kind                : Complete Main
    Default                     : Yes
    Forced                      : Yes

    Audio #2
    ID                          : 3
    ID in the original source m : 4352 (0x1100)
    Format                      : DTS XLL
    Format/Info                 : Digital Theater Systems
    Commercial name             : DTS-HD Master Audio
    Codec ID                    : A_DTS
    Duration                    : 1 h 35 min
    Bit rate mode               : Variable
    Bit rate                    : 2 307 kb/s
    Channel(s)                  : 6 channels
    Channel layout              : C L R Ls Rs LFE
    Sampling rate               : 48.0 kHz
    Frame rate                  : 93.750 FPS (512 SPF)
    Bit depth                   : 16 bits
    Compression mode            : Lossless
    Stream size                 : 1.55 GiB (9%)
    Title                       : Ingles [CinemaniaHDD]
    Language                    : English
    Default                     : No
    Forced                      : No
    Original source medium      : Blu-ray

    Text #1
    ID                          : 4
    ID in the original source m : 4636 (0x121C)
    Format                      : PGS
    Muxing mode                 : zlib
    Codec ID                    : S_HDMV/PGS
    Codec ID/Info               : Picture based subtitle format used on BDs/HD-DVDs
    Duration                    : 1 h 35 min
    Bit rate                    : 27.3 kb/s
    Count of elements           : 1930
    Stream size                 : 18.6 MiB (0%)
    Title                       : Español-PGS [CinemaniaHDD]
    Language                    : Spanish
    Default                     : No
    Forced                      : No
    Original source medium      : Blu-ray

    Text #2
    ID                          : 5
    ID in the original source m : 4608 (0x1200)
    Format                      : PGS
    Muxing mode                 : zlib
    Codec ID                    : S_HDMV/PGS
    Codec ID/Info               : Picture based subtitle format used on BDs/HD-DVDs
    Duration                    : 1 h 35 min
    Bit rate                    : 30.6 kb/s
    Count of elements           : 2154
    Stream size                 : 20.9 MiB (0%)
    Title                       : Ingles-PGS [CinemaniaHDD]
    Language                    : English
    Default                     : No
    Forced                      : No
    Original source medium      : Blu-ray

    Text #3
    ID                          : 6
    Format                      : UTF-8
    Codec ID                    : S_TEXT/UTF8
    Codec ID/Info               : UTF-8 Plain Text
    Duration                    : 1 h 35 min
    Bit rate                    : 1 b/s
    Count of elements           : 23
    Stream size                 : 934 Bytes (0%)
    Title                       : Forzados-SRT [CinemaniaHDD]
    Language                    : Spanish
    Default                     : Yes
    Forced                      : Yes

    Text #4
    ID                          : 7
    Format                      : UTF-8
    Codec ID                    : S_TEXT/UTF8
    Codec ID/Info               : UTF-8 Plain Text
    Duration                    : 1 h 35 min
    Bit rate                    : 45 b/s
    Count of elements           : 964
    Stream size                 : 31.5 KiB (0%)
    Title                       : Español-SRT [CinemaniaHDD]
    Language                    : Spanish
    Default                     : No
    Forced                      : No

    Menu
    00:00:00.000                : Chapter 01
    00:16:02.711                : Chapter 02
    00:19:11.066                : Chapter 03
    00:22:37.314                : Chapter 04
    00:26:51.526                : Chapter 05
    00:30:39.420                : Chapter 06
    00:39:04.592                : Chapter 07
    00:45:56.295                : Chapter 08
    00:49:43.772                : Chapter 09
    00:56:07.906                : Chapter 10
    01:00:21.326                : Chapter 11
    01:06:35.866                : Chapter 12
    01:09:58.652                : Chapter 13
    01:13:00.417                : Chapter 14
    01:18:05.180                : Chapter 15
    01:24:16.718                : Chapter 16

  • Peso: 16.7 GiB

Sinopsis

Descargar Francotirador: misión secreta (2022) REMUX 1080p Latino. Cuando un agente federal corrupto está involucrado en una red de tráfico sexual de personas, Sniper y el novato de la CIA Brandon Beckett se vuelven rebeldes y se unen a sus antiguos aliados, el agente de seguridad nacional Zero, y asesinan a Lady Death para descubrir al agente corrupto y acabar con la organización criminal.

Ficha técnica

Video trailer de la película

Enlaces de descarga

Rip de Bluray

Descargar Francotirador: misión secreta (2022) REMUX 1080p Latino




Aportes de DPeliculasHDmega la pass es:dpeliculashdmega.org Aportes de CinemaniaHD la pass es:cinemaniahdd.com
Guardado en : Acción , Misterio , Remux , Suspenso

Películas relacionadas

descargar Francotirador: misión secreta (2022) REMUX 1080p Latino Full 1080p 1080p gratis, Francotirador: misión secreta (2022) REMUX 1080p Latino Full 1080p mega 1 link, Francotirador: misión secreta (2022) REMUX 1080p Latino Full 1080p pelicula completa, descargar Francotirador: misión secreta (2022) REMUX 1080p Latino Full 1080p gratis en mega.

Francotirador: misión secreta (2022) REMUX 1080p Latino pelicula full hd, Francotirador: misión secreta (2022) REMUX 1080p Latino mega latino, Francotirador: misión secreta (2022) REMUX 1080p Latino 4k latino, Francotirador: misión secreta (2022) REMUX 1080p Latino pelicula completa, Francotirador: misión secreta (2022) REMUX 1080p Latino descargar gratis, descargar Francotirador: misión secreta (2022) REMUX 1080p Latino pelicula latino, Francotirador: misión secreta (2022) REMUX 1080p Latino 1 link mega, Francotirador: misión secreta (2022) REMUX 1080p Latino 1 link google drive, Francotirador: misión secreta (2022) REMUX 1080p Latino hd 1080p latino.
Comentarios 0