×

¿Problemas para descargar con Mozilla, EDGE? Deshabilita la opción "Abrir vinculos en una pestaña nueva" tal como lo muestra ésta imagen.

France: En primera plana (2021) HD 1080p Latino

197 vistas

Información de France: En primera plana (2021) HD 1080p Latino

Datos de la película

  • Calidad: 1080p
  • Audio: Se especifica abajo de la Sinopsis
  • Subtitulos: Español Latino SRT- FORZADOS SRT
  • Resolución: 1920x1036p
  • Formato: MKV
  • Codec: H.264
  • Encoder: Melkor
  • Mediainfo: Clic para Mostrar Datos Ver
  • France. En Primera Plana (2021) HD 1080p Latino.mkv
    Format                      : Matroska
    Format version              : Version 4
    File size                   : 3.84 GiB
    Duration                    : 2 h 13 min
    Overall bit rate            : 4 122 kb/s
    Movie name                  : France (2021) CinemaniaHDD.Net
    Encoded date                : UTC 2023-02-10 21:13:50
    Writing application         : mkvmerge v56.1.0 ('My Friend') 64-bit
    Writing library             : libebml v1.4.2 + libmatroska v1.6.4 / Lavf57.72.101
    Attachments                 : CINEMANIAHD.png
    SITE                        : CinemaniaHDD.Net
    UPLOADER                    : Melkor

    Video
    ID                          : 1
    Format                      : AVC
    Format/Info                 : Advanced Video Codec
    Format profile              : High@L4.1
    Format settings             : CABAC / 4 Ref Frames
    Format settings, CABAC      : Yes
    Format settings, Reference  : 4 frames
    Codec ID                    : V_MPEG4/ISO/AVC
    Duration                    : 2 h 13 min
    Bit rate                    : 3 500 kb/s
    Width                       : 1 920 pixels
    Height                      : 1 036 pixels
    Display aspect ratio        : 1.85:1
    Frame rate mode             : Constant
    Frame rate                  : 23.976 (24000/1001) FPS
    Color space                 : YUV
    Chroma subsampling          : 4:2:0
    Bit depth                   : 8 bits
    Scan type                   : Progressive
    Bits/(Pixel*Frame)          : 0.073
    Stream size                 : 3.18 GiB (83%)
    Title                       : HD1080p [CinemaniaHDD]
    Writing library             : x264 core 163 r3059 b684ebe0
    Encoding settings           : cabac=1 / ref=4 / deblock=1:-1:-1 / analyse=0x3:0x133 / me=umh / subme=9 / psy=1 / psy_rd=1.00:0.15 / mixed_ref=1 / me_range=16 / chroma_me=1 / trellis=2 / 8x8dct=1 / cqm=0 / deadzone=21,11 / fast_pskip=1 / chroma_qp_offset=-3 / threads=24 / lookahead_threads=2 / sliced_threads=0 / nr=0 / decimate=1 / interlaced=0 / bluray_compat=0 / constrained_intra=0 / bframes=3 / b_pyramid=2 / b_adapt=2 / b_bias=0 / direct=3 / weightb=1 / open_gop=0 / weightp=2 / keyint=240 / keyint_min=24 / scenecut=40 / intra_refresh=0 / rc_lookahead=60 / rc=abr / mbtree=1 / bitrate=3500 / ratetol=1.0 / qcomp=0.60 / qpmin=0 / qpmax=69 / qpstep=4 / vbv_maxrate=62500 / vbv_bufsize=78125 / nal_hrd=none / filler=0 / ip_ratio=1.40 / aq=1:1.00
    Default                     : Yes
    Forced                      : Yes
    Color range                 : Limited
    Color primaries             : BT.709
    Transfer characteristics    : BT.709
    Matrix coefficients         : BT.709

    Audio #1
    ID                          : 2
    Format                      : AC-3
    Format/Info                 : Audio Coding 3
    Commercial name             : Dolby Digital
    Codec ID                    : A_AC3
    Duration                    : 2 h 13 min
    Bit rate mode               : Constant
    Bit rate                    : 256 kb/s
    Channel(s)                  : 2 channels
    Channel layout              : L R
    Sampling rate               : 48.0 kHz
    Frame rate                  : 31.250 FPS (1536 SPF)
    Compression mode            : Lossy
    Delay relative to video     : -5 ms
    Stream size                 : 244 MiB (6%)
    Title                       : Español Latino [CinemaniaHDD]
    Language                    : Spanish
    Service kind                : Complete Main
    Default                     : Yes
    Forced                      : Yes

    Audio #2
    ID                          : 3
    Format                      : AC-3
    Format/Info                 : Audio Coding 3
    Commercial name             : Dolby Digital
    Codec ID                    : A_AC3
    Duration                    : 2 h 13 min
    Bit rate mode               : Constant
    Bit rate                    : 448 kb/s
    Channel(s)                  : 6 channels
    Channel layout              : L R C LFE Ls Rs
    Sampling rate               : 48.0 kHz
    Frame rate                  : 31.250 FPS (1536 SPF)
    Compression mode            : Lossy
    Delay relative to video     : -5 ms
    Stream size                 : 428 MiB (11%)
    Title                       : Frances [CinemaniaHDD]
    Language                    : French
    Service kind                : Complete Main
    Default                     : No
    Forced                      : No

    Text #1
    ID                          : 4
    Format                      : UTF-8
    Codec ID                    : S_TEXT/UTF8
    Codec ID/Info               : UTF-8 Plain Text
    Duration                    : 2 h 0 min
    Bit rate                    : 0 b/s
    Count of elements           : 9
    Stream size                 : 259 Bytes (0%)
    Title                       : Forzados-SRT [CinemaniaHDD]
    Language                    : Spanish
    Default                     : Yes
    Forced                      : Yes

    Text #2
    ID                          : 5
    Format                      : UTF-8
    Codec ID                    : S_TEXT/UTF8
    Codec ID/Info               : UTF-8 Plain Text
    Duration                    : 2 h 7 min
    Bit rate                    : 44 b/s
    Count of elements           : 1568
    Stream size                 : 41.8 KiB (0%)
    Title                       : Español-SRT [CinemaniaHDD]
    Language                    : Spanish
    Default                     : No
    Forced                      : No

    Menu
    00:00:00.000                : Chapter 01
    00:09:33.948                : Chapter 02
    00:25:43.041                : Chapter 03
    00:42:14.949                : Chapter 04
    00:58:31.925                : Chapter 05
    01:10:56.794                : Chapter 06
    01:28:11.911                : Chapter 07
    01:39:24.500                : Chapter 08
    01:50:52.395                : Chapter 09
    01:59:01.717                : Chapter 10

  • Peso: 3.84 GiB

Sinopsis

Descargar France: En primera plana (2021) HD 1080p Latino. París, hoy. France de Meurs es una periodista estrella que corre entre un televisor, una guerra lejana y el ajetreo y el bullicio de su ajetreada vida familiar. Su mundo frenético de alto perfil se vuelve repentinamente patas arriba después de un accidente de tráfico en el que hiere a un peatón. Esta irrupción inesperada de la realidad pone todo en cuestión. Mientras Francia intenta desacelerar y retirarse a una vida anónima simple, su fama continúa persiguiéndola hasta que una historia de amor desconcertada parece poner fin a su búsqueda.

Español Latino AC3 2.0 Web – Frances AC3 5.1 BD

Ficha técnica

Video trailer de la película

Enlaces de descarga

Rip de Bluray

Descargar France: En primera plana (2021) HD 1080p Latino




Aportes de DPeliculasHDmega la pass es:dpeliculashdmega.org Aportes de CinemaniaHD la pass es:cinemaniahdd.com Aportes recientes:cinemaniahdd.net
Guardado en : Comedia , Drama , HD 1080p

Películas relacionadas

descargar France: En primera plana (2021) HD 1080p Latino 1080p 1080p gratis, France: En primera plana (2021) HD 1080p Latino 1080p mega 1 link, France: En primera plana (2021) HD 1080p Latino 1080p pelicula completa, descargar France: En primera plana (2021) HD 1080p Latino 1080p gratis en mega.

France: En primera plana (2021) HD 1080p Latino pelicula full hd, France: En primera plana (2021) HD 1080p Latino mega latino, France: En primera plana (2021) HD 1080p Latino 4k latino, France: En primera plana (2021) HD 1080p Latino pelicula completa, France: En primera plana (2021) HD 1080p Latino descargar gratis, descargar France: En primera plana (2021) HD 1080p Latino pelicula latino, France: En primera plana (2021) HD 1080p Latino 1 link mega, France: En primera plana (2021) HD 1080p Latino 1 link google drive, France: En primera plana (2021) HD 1080p Latino hd 1080p latino.
Comentarios 0