Formula 1: Drive to Survive (2019) Temporada 1 NF 1080p Latino

715 vistas
1 estrella2 estrellas3 estrellas4 estrellas5 estrellas (2 votos, promedio: 3,00 de 5)
Cargando…

Información de Formula 1: Drive to Survive (2019) Temporada 1 NF 1080p Latino

Datos de la película

  • Calidad: WEBDL
  • Audio: Español Latino AC3 5.1 Netflix - Ingles AC3 5.1 Netflix
  • Subtitulos: Español Latino SRT- FORZADOS SRT
  • Resolución: 1920x1080
  • Formato: MKV
  • Codec: H.264
  • Encoder: Chesse92
  • Mediainfo: Clic para Mostrar Datos Ver
  • Formula 1 Drive to Survive S01E01 NF 1080p Latino.mkv
    Format                      : Matroska
    Format version              : Version 4
    File size                   : 1.96 GiB
    Duration                    : 36 min 14 s
    Overall bit rate mode       : Variable
    Overall bit rate            : 7 741 kb/s
    Movie name                  : Formula 1 Drive to Survive S01E01
    Encoded date                : UTC 2019-03-10 20:28:21 / UTC 2019-03-06 17:12:33
    Writing application         : mkvmerge v11.0.0 ('Alive') 64bit
    Writing library             : libebml v1.3.4 + libmatroska v1.4.5 / Lavf58.0.0

    Video
    ID                          : 1
    Format                      : AVC
    Format/Info                 : Advanced Video Codec
    Format profile              : [email protected]
    Format settings             : CABAC / 3 Ref Frames
    Format settings, CABAC      : Yes
    Format settings, ReFrames   : 3 frames
    Codec ID                    : V_MPEG4/ISO/AVC
    Duration                    : 36 min 14 s
    Bit rate mode               : Variable
    Bit rate                    : 7 150 kb/s
    Maximum bit rate            : 10.7 Mb/s
    Width                       : 1 920 pixels
    Height                      : 1 080 pixels
    Display aspect ratio        : 16:9
    Frame rate mode             : Constant
    Frame rate                  : 25.000 FPS
    Color space                 : YUV
    Chroma subsampling          : 4:2:0
    Bit depth                   : 8 bits
    Scan type                   : Progressive
    Bits/(Pixel*Frame)          : 0.138
    Stream size                 : 1.73 GiB (88%)
    Title                       : CinemaniaHDD
    Writing library             : x264 core 148 r2715 7e75228
    Encoding settings           : cabac=1 / ref=3 / deblock=1:0:0 / analyse=0x1:0x111 / me=umh / subme=10 / psy=1 / psy_rd=1.00:0.00 / mixed_ref=1 / me_range=24 / chroma_me=1 / trellis=2 / 8x8dct=0 / cqm=0 / deadzone=21,11 / fast_pskip=1 / chroma_qp_offset=-2 / threads=8 / lookahead_threads=1 / sliced_threads=0 / nr=0 / decimate=1 / interlaced=0 / bluray_compat=0 / stitchable=1 / constrained_intra=0 / bframes=2 / b_pyramid=0 / b_adapt=2 / b_bias=0 / direct=3 / weightb=1 / open_gop=0 / weightp=2 / keyint=50 / keyint_min=26 / scenecut=0 / intra_refresh=0 / rc_lookahead=50 / rc=2pass / mbtree=1 / bitrate=7150 / ratetol=1.0 / qcomp=0.50 / qpmin=6 / qpmax=51 / qpstep=4 / cplxblur=20.0 / qblur=0.5 / vbv_maxrate=10725 / vbv_bufsize=14300 / nal_hrd=vbr / filler=0 / ip_ratio=1.40 / aq=1:1.00
    Default                     : Yes
    Forced                      : No
    Statistics Tags Issue       : mkvmerge v11.0.0 ('Alive') 64bit 2019-03-10 20:28:21 / mkvmerge v11.0.0 ('Alive') 64bit 2019-03-10 20:28:21 / UTC 2019-03-06 17:12:33
    FromStats_BitRate           : 6971202
    FromStats_Duration          : 00:36:14.200000000
    FromStats_FrameCount        : 54355
    FromStats_StreamSize        : 1894598489

    Audio #1
    ID                          : 2
    Format                      : AC-3
    Format/Info                 : Audio Coding 3
    Commercial name             : Dolby Digital
    Codec ID                    : A_AC3
    Duration                    : 36 min 14 s
    Bit rate mode               : Constant
    Bit rate                    : 384 kb/s
    Channel(s)                  : 6 channels
    Channel layout              : L R C LFE Ls Rs
    Sampling rate               : 48.0 kHz
    Frame rate                  : 31.250 FPS (1536 SPF)
    Bit depth                   : 16 bits
    Compression mode            : Lossy
    Stream size                 : 99.5 MiB (5%)
    Title                       : Español latino [CinemaniaHDD]
    Language                    : Spanish
    Service kind                : Complete Main
    Default                     : Yes
    Forced                      : No
    Encoded date                : UTC 2019-03-05 22:05:04
    Statistics Tags Issue       : mkvmerge v11.0.0 ('Alive') 64bit 2019-03-10 20:28:21 / mkvmerge v11.0.0 ('Alive') 64bit 2019-03-10 20:28:21 / UTC 2019-03-06 17:12:33
    FromStats_BitRate           : 384000
    FromStats_Duration          : 00:36:14.240000000
    FromStats_FrameCount        : 67945
    FromStats_StreamSize        : 104363520

    Audio #2
    ID                          : 3
    Format                      : AC-3
    Format/Info                 : Audio Coding 3
    Commercial name             : Dolby Digital
    Codec ID                    : A_AC3
    Duration                    : 36 min 14 s
    Bit rate mode               : Constant
    Bit rate                    : 384 kb/s
    Channel(s)                  : 6 channels
    Channel layout              : L R C LFE Ls Rs
    Sampling rate               : 48.0 kHz
    Frame rate                  : 31.250 FPS (1536 SPF)
    Bit depth                   : 16 bits
    Compression mode            : Lossy
    Stream size                 : 99.5 MiB (5%)
    Title                       : Inglés [CinemaniaHDD]
    Language                    : English
    Service kind                : Complete Main
    Default                     : No
    Forced                      : No
    Encoded date                : UTC 2019-03-06 17:12:33
    Statistics Tags Issue       : mkvmerge v11.0.0 ('Alive') 64bit 2019-03-10 20:28:21 / mkvmerge v11.0.0 ('Alive') 64bit 2019-03-10 20:28:21 / UTC 2019-03-06 17:12:33
    FromStats_BitRate           : 384000
    FromStats_Duration          : 00:36:14.240000000
    FromStats_FrameCount        : 67945
    FromStats_StreamSize        : 104363520

    Text #1
    ID                          : 4
    Format                      : UTF-8
    Codec ID                    : S_TEXT/UTF8
    Codec ID/Info               : UTF-8 Plain Text
    Title                       : Forzados [CinemaniaHDD]
    Language                    : Spanish
    Default                     : Yes
    Forced                      : Yes
    Statistics Tags Issue       : mkvmerge v11.0.0 ('Alive') 64bit 2019-03-10 20:28:21 / mkvmerge v11.0.0 ('Alive') 64bit 2019-03-10 20:28:21 / UTC 2019-03-06 17:12:33
    FromStats_BitRate           : 2
    FromStats_Duration          : 00:34:18.680000000
    FromStats_FrameCount        : 26
    FromStats_StreamSize        : 749

    Text #2
    ID                          : 5
    Format                      : UTF-8
    Codec ID                    : S_TEXT/UTF8
    Codec ID/Info               : UTF-8 Plain Text
    Title                       : Español latino [CinemaniaHDD]
    Language                    : Spanish
    Default                     : No
    Forced                      : No
    Statistics Tags Issue       : mkvmerge v11.0.0 ('Alive') 64bit 2019-03-10 20:28:21 / mkvmerge v11.0.0 ('Alive') 64bit 2019-03-10 20:28:21 / UTC 2019-03-06 17:12:33
    FromStats_BitRate           : 75
    FromStats_Duration          : 00:35:11.100000000
    FromStats_FrameCount        : 527
    FromStats_StreamSize        : 19950

  • Peso: 1.95 Aproximado por capitulo (18.3 GB Total)

Sinopsis

Serie de TV (2019). 10 episodios. Serie documental sobre el mundo de la Fórmula 1 de los productores de “Senna” y “Amy”. Se centrará en la vida personal de los corredores, sus familias, amigos y el mundo que hay detrás de las carreras.

Ficha técnica

  • Titulo original: Formula 1: Drive to Survive
  • Fecha de lanzamiento: 08-03-2019
  • Género: Documental, Series
  • Puntuación: 3.0 2 votos
  • Duración:
    0h 36m

Video trailer de la película

Enlaces de descarga

Rip de Bluray

Descargar Formula 1: Drive to Survive (2019) Temporada 1 NF 1080p Latino




Aportes de DPeliculasHDmega la pass es:dpeliculashdmega.org Aportes de CinemaniaHD la pass es:cinemaniahdd.com
Guardado en : Documental , Series

Películas relacionadas

Comentarios 0