×

¿Problemas para descargar con Mozilla, EDGE? Deshabilita la opción "Abrir vinculos en una pestaña nueva" tal como lo muestra ésta imagen.

Ford v Ferrari (2019) WEB-DL 1080p Latino

2.441 vistas

Información de Ford v Ferrari (2019) WEB-DL 1080p Latino

Datos de la película

  • Calidad: WEBDL
  • Audio: Español Latino AC3 2.0 iTunes - Ingles AC3 5.1 iTunes
  • Subtitulos: Español Latino SRT- FORZADOS SRT
  • Resolución: 1920x804
  • Formato: MKV
  • Codec: H.264
  • Encoder: cinemaniahdd
  • Mediainfo: Clic para Mostrar Datos Ver
  • Contra Lo Imposible (2019) WEB-DL 1080p Latino.mkv
    Format                      : Matroska
    Format version              : Version 4
    File size                   : 5.52 GiB
    Duration                    : 2 h 32 min
    Overall bit rate            : 5 185 kb/s
    Movie name                  : Contra Lo Imposible (2019) - CinemaniaHD.Net
    Encoded date                : UTC 2020-01-28 05:22:40
    Writing application         : mkvmerge v42.0.0 ('Overtime') 64-bit
    Writing library             : libebml v1.3.10 + libmatroska v1.5.2

    Video
    ID                          : 1
    Format                      : AVC
    Format/Info                 : Advanced Video Codec
    Format profile              : High@L4
    Format settings             : CABAC / 5 Ref Frames
    Format settings, CABAC      : Yes
    Format settings, ReFrames   : 5 frames
    Codec ID                    : V_MPEG4/ISO/AVC
    Duration                    : 2 h 32 min
    Bit rate                    : 4 543 kb/s
    Width                       : 1 920 pixels
    Height                      : 804 pixels
    Display aspect ratio        : 2.40:1
    Frame rate mode             : Constant
    Frame rate                  : 23.976 FPS
    Color space                 : YUV
    Chroma subsampling          : 4:2:0
    Bit depth                   : 8 bits
    Scan type                   : Progressive
    Bits/(Pixel*Frame)          : 0.123
    Stream size                 : 4.84 GiB (88%)
    Title                       : CinemaniaHDD
    Language                    : English
    Default                     : Yes
    Forced                      : No
    Color range                 : Limited
    Color primaries             : BT.709
    Transfer characteristics    : BT.709
    Matrix coefficients         : BT.709

    Audio #1
    ID                          : 2
    Format                      : AC-3
    Format/Info                 : Audio Coding 3
    Commercial name             : Dolby Digital
    Codec ID                    : A_AC3
    Duration                    : 2 h 32 min
    Bit rate mode               : Constant
    Bit rate                    : 256 kb/s
    Channel(s)                  : 2 channels
    Channel layout              : L R
    Sampling rate               : 48.0 kHz
    Frame rate                  : 31.250 FPS (1536 SPF)
    Bit depth                   : 16 bits
    Compression mode            : Lossy
    Stream size                 : 279 MiB (5%)
    Title                       : Español latino [CinemaniaHDD]
    Language                    : Spanish
    Service kind                : Complete Main
    Default                     : Yes
    Forced                      : No

    Audio #2
    ID                          : 3
    Format                      : AC-3
    Format/Info                 : Audio Coding 3
    Commercial name             : Dolby Digital
    Codec ID                    : A_AC3
    Duration                    : 2 h 32 min
    Bit rate mode               : Constant
    Bit rate                    : 384 kb/s
    Channel(s)                  : 6 channels
    Channel layout              : L R C LFE Ls Rs
    Sampling rate               : 48.0 kHz
    Frame rate                  : 31.250 FPS (1536 SPF)
    Bit depth                   : 16 bits
    Compression mode            : Lossy
    Stream size                 : 419 MiB (7%)
    Title                       : Inglés [CinemaniaHDD]
    Language                    : English
    Service kind                : Complete Main
    Default                     : No
    Forced                      : No

    Text #1
    ID                          : 4
    Format                      : UTF-8
    Codec ID                    : S_TEXT/UTF8
    Codec ID/Info               : UTF-8 Plain Text
    Duration                    : 2 h 31 min
    Bit rate                    : 0 b/s
    Count of elements           : 27
    Stream size                 : 977 Bytes (0%)
    Title                       : Forzados [CinemaniaHDD]
    Language                    : Spanish
    Default                     : Yes
    Forced                      : Yes

    Text #2
    ID                          : 5
    Format                      : UTF-8
    Codec ID                    : S_TEXT/UTF8
    Codec ID/Info               : UTF-8 Plain Text
    Duration                    : 2 h 31 min
    Bit rate                    : 53 b/s
    Count of elements           : 1955
    Stream size                 : 58.9 KiB (0%)
    Title                       : Español latino [CinemaniaHDD]
    Language                    : Spanish
    Default                     : No
    Forced                      : No

    Menu
    00:00:00.000                : en:Chapter 01
    00:04:44.617                : en:Chapter 02
    00:07:31.533                : en:Chapter 03
    00:10:01.807                : en:Chapter 04
    00:15:38.309                : en:Chapter 05
    00:20:14.167                : en:Chapter 06
    00:21:38.792                : en:Chapter 07
    00:25:59.886                : en:Chapter 08
    00:31:56.867                : en:Chapter 09
    00:34:08.748                : en:Chapter 10
    00:39:12.258                : en:Chapter 11
    00:42:05.888                : en:Chapter 12
    00:45:55.993                : en:Chapter 13
    00:48:37.654                : en:Chapter 14
    00:51:21.067                : en:Chapter 15
    00:55:02.663                : en:Chapter 16
    00:57:49.788                : en:Chapter 17
    01:00:26.027                : en:Chapter 18
    01:06:32.476                : en:Chapter 19
    01:11:58.802                : en:Chapter 20
    01:16:12.764                : en:Chapter 21
    01:19:29.502                : en:Chapter 22
    01:24:17.748                : en:Chapter 23
    01:29:23.969                : en:Chapter 24
    01:33:15.158                : en:Chapter 25
    01:38:10.285                : en:Chapter 26
    01:40:56.451                : en:Chapter 27
    01:43:22.305                : en:Chapter 28
    01:45:48.200                : en:Chapter 29
    01:50:37.947                : en:Chapter 30
    01:53:37.333                : en:Chapter 31
    01:57:46.581                : en:Chapter 32
    02:00:15.645                : en:Chapter 33
    02:05:21.866                : en:Chapter 34
    02:09:17.350                : en:Chapter 35
    02:12:00.471                : en:Chapter 36
    02:15:25.383                : en:Chapter 37
    02:18:22.101                : en:Chapter 38
    02:20:45.409                : en:Chapter 39
    02:26:26.582                : en:Chapter 40

     

  • Peso: 5.52 GiB

Sinopsis

Se centra en un excéntrico y decidido equipo americano de ingenieros y diseñadores liderados por el visionario automovilístico Carroll Shelby (Damon) y su conductor británico Ken Miles (Bale). Henry Ford II y Lee Iacocca les dan la misión de construir desde cero un nuevo automóvil con el fin de derrocar el dominio de Ferrari en el Campeonato del Mundo de Le Mans de 1966.

Ficha técnica

Video trailer de la película

Enlaces de descarga

Rip de Bluray

Descargar Ford v Ferrari (2019) WEB-DL 1080p Latino




Aportes de DPeliculasHDmega la pass es:dpeliculashdmega.org Aportes de CinemaniaHD la pass es:cinemaniahdd.com
Guardado en : Acción , Drama , Historia

Películas relacionadas

  • Ajin: Semi-Humano (2017) AMZN WEB-DL 1080p Latino

    Ajin: Semi-Humano (2017) AMZN WEB-DL 1080p Latino

    2017
    Ajin: Semi-Humano (2017) AMZN WEB-DL 1080p Latino

    1h 50m 2017

    Descargar Ajin: Semi-Humano (2017) AMZN WEB-DL 1080p Latino. En el manga original, aparece una persona...

    Director: Toru Yamamoto

    Género: Acción

    Actores: Yuki Yamada

  • Ajin: Semi-Humano (2017) REMUX 1080p Latino

    Ajin: Semi-Humano (2017) REMUX 1080p Latino

    2017
    Ajin: Semi-Humano (2017) REMUX 1080p Latino

    1h 50m 2017

    Descargar Ajin: Semi-Humano (2017) REMUX 1080p Latino. En el manga original, aparece una persona inmortal...

    Director: Toru Yamamoto

    Género: Acción

    Actores: Yuki Yamada

descargar Ford v Ferrari (2019) WEB-DL 1080p Latino WEBDL 1080p gratis, Ford v Ferrari (2019) WEB-DL 1080p Latino WEBDL mega 1 link, Ford v Ferrari (2019) WEB-DL 1080p Latino WEBDL pelicula completa, descargar Ford v Ferrari (2019) WEB-DL 1080p Latino WEBDL gratis en mega.

Ford v Ferrari (2019) WEB-DL 1080p Latino pelicula full hd, Ford v Ferrari (2019) WEB-DL 1080p Latino mega latino, Ford v Ferrari (2019) WEB-DL 1080p Latino 4k latino, Ford v Ferrari (2019) WEB-DL 1080p Latino pelicula completa, Ford v Ferrari (2019) WEB-DL 1080p Latino descargar gratis, descargar Ford v Ferrari (2019) WEB-DL 1080p Latino pelicula latino, Ford v Ferrari (2019) WEB-DL 1080p Latino 1 link mega, Ford v Ferrari (2019) WEB-DL 1080p Latino 1 link google drive, Ford v Ferrari (2019) WEB-DL 1080p Latino hd 1080p latino.
Comentarios 0