×

¿Problemas para descargar con Mozilla, EDGE? Deshabilita la opción "Abrir vinculos en una pestaña nueva" tal como lo muestra ésta imagen.

Contra lo Imposible (2019) 1080p Latino

1.641 vistas

Información de Contra lo Imposible (2019) 1080p Latino

Datos de la película

  • Calidad: 1080p
  • Audio: Español Latino AC3 5.1 BLURAY - Ingles AC3 5.1 BLURAY
  • Subtitulos: Español Latino SRT - Ingles SRT
  • Resolución: 1920x804p
  • Formato: MKV
  • Codec: H.264
  • Encoder: CinemaniaHD
  • Mediainfo: Clic para Mostrar Datos Ver
  • Contra Lo Imposible (2019) 1080p Latino-CMHDD.mkv
    Format                      : Matroska
    Format version              : Version 4
    File size                   : 4.61 GiB
    Duration                    : 2 h 32 min
    Overall bit rate            : 4 324 kb/s
    Movie name                  : CinemaniaHDD.Net
    Encoded date                : UTC 2020-01-31 16:53:47
    Writing application         : mkvmerge v42.0.0 ('Overtime') 64-bit
    Writing library             : libebml v1.3.10 + libmatroska v1.5.2
    Attachments                 : CINEMANIAHD.png

    Video
    ID                          : 1
    Format                      : AVC
    Format/Info                 : Advanced Video Codec
    Format profile              : High@L4.1
    Format settings             : CABAC / 5 Ref Frames
    Format settings, CABAC      : Yes
    Format settings, ReFrames   : 5 frames
    Codec ID                    : V_MPEG4/ISO/AVC
    Duration                    : 2 h 32 min
    Bit rate                    : 3 500 kb/s
    Width                       : 1 920 pixels
    Height                      : 804 pixels
    Display aspect ratio        : 2.40:1
    Frame rate mode             : Constant
    Frame rate                  : 23.976 (24000/1001) FPS
    Color space                 : YUV
    Chroma subsampling          : 4:2:0
    Bit depth                   : 8 bits
    Scan type                   : Progressive
    Bits/(Pixel*Frame)          : 0.095
    Stream size                 : 3.65 GiB (79%)
    Title                       : HD1080p [Bluray]
    Writing library             : x264 core 157 r2935 545de2f
    Encoding settings           : cabac=1 / ref=5 / deblock=1:-1:-1 / analyse=0x3:0x113 / me=hex / subme=8 / psy=1 / psy_rd=1.00:0.15 / mixed_ref=1 / me_range=16 / chroma_me=1 / trellis=2 / 8x8dct=1 / cqm=0 / deadzone=21,11 / fast_pskip=1 / chroma_qp_offset=-3 / threads=25 / lookahead_threads=4 / sliced_threads=0 / nr=0 / decimate=1 / interlaced=0 / bluray_compat=0 / constrained_intra=0 / bframes=3 / b_pyramid=2 / b_adapt=1 / b_bias=0 / direct=3 / weightb=1 / open_gop=0 / weightp=2 / keyint=240 / keyint_min=24 / scenecut=40 / intra_refresh=0 / rc_lookahead=50 / rc=abr / mbtree=1 / bitrate=3500 / ratetol=1.0 / qcomp=0.60 / qpmin=0 / qpmax=69 / qpstep=4 / vbv_maxrate=62500 / vbv_bufsize=78125 / nal_hrd=none / filler=0 / ip_ratio=1.40 / aq=1:1.00
    Default                     : Yes
    Forced                      : Yes
    Color range                 : Limited
    Color primaries             : BT.709
    Transfer characteristics    : BT.709
    Matrix coefficients         : BT.709

    Audio #1
    ID                          : 2
    Format                      : AC-3
    Format/Info                 : Audio Coding 3
    Commercial name             : Dolby Digital
    Codec ID                    : A_AC3
    Duration                    : 2 h 32 min
    Bit rate mode               : Constant
    Bit rate                    : 448 kb/s
    Channel(s)                  : 6 channels
    Channel layout              : L R C LFE Ls Rs
    Sampling rate               : 48.0 kHz
    Frame rate                  : 31.250 FPS (1536 SPF)
    Bit depth                   : 16 bits
    Compression mode            : Lossy
    Delay relative to video     : -5 ms
    Stream size                 : 489 MiB (10%)
    Title                       : AC3_5.1_Bluray_Esp
    Language                    : Spanish
    Service kind                : Complete Main
    Default                     : Yes
    Forced                      : Yes

    Audio #2
    ID                          : 3
    Format                      : AC-3
    Format/Info                 : Audio Coding 3
    Commercial name             : Dolby Digital
    Codec ID                    : A_AC3
    Duration                    : 2 h 32 min
    Bit rate mode               : Constant
    Bit rate                    : 448 kb/s
    Channel(s)                  : 6 channels
    Channel layout              : L R C LFE Ls Rs
    Sampling rate               : 48.0 kHz
    Frame rate                  : 31.250 FPS (1536 SPF)
    Bit depth                   : 16 bits
    Compression mode            : Lossy
    Delay relative to video     : -5 ms
    Stream size                 : 489 MiB (10%)
    Title                       : AC3_5.1_Bluray_Eng
    Language                    : English
    Service kind                : Complete Main
    Default                     : No
    Forced                      : No

    Text #1
    ID                          : 4
    Format                      : UTF-8
    Codec ID                    : S_TEXT/UTF8
    Codec ID/Info               : UTF-8 Plain Text
    Duration                    : 2 h 31 min
    Bit rate                    : 0 b/s
    Count of elements           : 26
    Stream size                 : 967 Bytes (0%)
    Title                       : Sub_Forzados
    Language                    : Spanish
    Default                     : Yes
    Forced                      : Yes

    Text #2
    ID                          : 5
    Format                      : UTF-8
    Codec ID                    : S_TEXT/UTF8
    Codec ID/Info               : UTF-8 Plain Text
    Duration                    : 2 h 26 min
    Bit rate                    : 55 b/s
    Count of elements           : 1950
    Stream size                 : 59.1 KiB (0%)
    Title                       : Sub_Esp
    Language                    : Spanish
    Default                     : No
    Forced                      : No

    Text #3
    ID                          : 6
    Format                      : UTF-8
    Codec ID                    : S_TEXT/UTF8
    Codec ID/Info               : UTF-8 Plain Text
    Duration                    : 2 h 32 min
    Bit rate                    : 66 b/s
    Count of elements           : 2489
    Stream size                 : 73.8 KiB (0%)
    Title                       : Sub_Eng
    Language                    : English
    Default                     : No
    Forced                      : No

    Menu
    00:00:00.000                : :Chapter 1
    00:04:45.619                : :Chapter 2
    00:07:32.535                : :Chapter 3
    00:10:02.811                : :Chapter 4
    00:15:39.313                : :Chapter 5
    00:20:15.172                : :Chapter 6
    00:21:39.799                : :Chapter 7
    00:26:00.893                : :Chapter 8
    00:31:57.874                : :Chapter 9
    00:34:09.756                : :Chapter 10
    00:39:13.268                : :Chapter 11
    00:42:06.899                : :Chapter 12
    00:45:57.004                : :Chapter 13
    00:48:38.666                : :Chapter 14
    00:51:22.079                : :Chapter 15
    00:55:03.675                : :Chapter 16
    00:57:50.801                : :Chapter 17
    01:00:27.165                : :Chapter 18
    01:06:33.490                : :Chapter 19
    01:11:59.816                : :Chapter 20
    01:16:13.861                : :Chapter 21
    01:19:30.516                : :Chapter 22
    01:24:18.762                : :Chapter 23
    01:29:25.110                : :Chapter 24
    01:33:16.174                : :Chapter 25
    01:38:11.302                : :Chapter 26
    01:40:57.510                : :Chapter 27
    01:43:23.447                : :Chapter 28
    01:45:49.218                : :Chapter 29
    01:50:39.091                : :Chapter 30
    01:53:38.353                : :Chapter 31
    01:57:47.602                : :Chapter 32
    02:00:16.668                : :Chapter 33
    02:05:22.890                : :Chapter 34
    02:09:18.542                : :Chapter 35
    02:12:01.497                : :Chapter 36
    02:15:26.410                : :Chapter 37
    02:18:23.128                : :Chapter 38
    02:20:46.563                : :Chapter 39
    02:26:27.612                : :Chapter 40

  • Peso: 4.61 GiB

Sinopsis

Descargar Contra lo Imposible (2019) 1080p Latino. Se centra en un excéntrico y decidido equipo americano de ingenieros y diseñadores liderados por el visionario automovilístico Carroll Shelby (Damon) y su conductor británico Ken Miles (Bale). Henry Ford II y Lee Iacocca les dan la misión de construir desde cero un nuevo automóvil con el fin de derrocar el dominio de Ferrari en el Campeonato del Mundo de Le Mans de 1966.

Ficha técnica

Video trailer de la película

Enlaces de descarga

Rip de Bluray

Descargar Contra lo Imposible (2019) 1080p Latino




Aportes de DPeliculasHDmega la pass es:dpeliculashdmega.org Aportes de CinemaniaHD la pass es:cinemaniahdd.com
Guardado en : Acción , Drama , HD 1080p

Películas relacionadas

  • Zola (2020) HD 1080p Latino

    Zola (2020) HD 1080p Latino

    2020
    Zola (2020) HD 1080p Latino

    1h 26m 2020

    Descargar Zola (2020) HD 1080p Latino. Una camarera accede a acompañar a una bailarina exótica, su...

    Director: Sheri Davani

    Género: Comedia

    Actores: Ts Madison

  • Hocus Pocus: Abracadabra (1993) 1080p Latino

    Hocus Pocus: Abracadabra (1993) 1080p Latino

    1993
    Hocus Pocus: Abracadabra (1993) 1080p Latino

    1h 36m 1993

    Descargar Hocus Pocus: Abracadabra (1993) 1080p Latino. Tres brujas del siglo XII son invocadas durante...

    Director: Kenny Ortega

    Género: Comedia

    Actores: Vinessa Shaw

  • Togo (2022) NF WEB-DL 1080p Latino

    Togo (2022) NF WEB-DL 1080p Latino

    2022
    Togo (2022) NF WEB-DL 1080p Latino

    1h 35m 2022

    Descargar Togo (2022) NF WEB-DL 1080p Latino. Los narcos de poca monta están copando las calles de Montevideo...

    Director: Adrián Caetano

    Género: Crimen

    Actores: Tito Prieto

descargar Contra lo Imposible (2019) 1080p Latino 1080p 1080p gratis, Contra lo Imposible (2019) 1080p Latino 1080p mega 1 link, Contra lo Imposible (2019) 1080p Latino 1080p pelicula completa, descargar Contra lo Imposible (2019) 1080p Latino 1080p gratis en mega.

Contra lo Imposible (2019) 1080p Latino pelicula full hd, Contra lo Imposible (2019) 1080p Latino mega latino, Contra lo Imposible (2019) 1080p Latino 4k latino, Contra lo Imposible (2019) 1080p Latino pelicula completa, Contra lo Imposible (2019) 1080p Latino descargar gratis, descargar Contra lo Imposible (2019) 1080p Latino pelicula latino, Contra lo Imposible (2019) 1080p Latino 1 link mega, Contra lo Imposible (2019) 1080p Latino 1 link google drive, Contra lo Imposible (2019) 1080p Latino hd 1080p latino.
Comentarios 0