×

¿Problemas para descargar con Mozilla, EDGE? Deshabilita la opción "Abrir vinculos en una pestaña nueva" tal como lo muestra ésta imagen.

Contra lo Imposible (2019) Full HD 1080p Latino

2.646 vistas

Información de Contra lo Imposible (2019) Full HD 1080p Latino

Datos de la película

  • Calidad: Full 1080p
  • Audio: Español Latino AC3 5.1 BLURAY - Ingles DTS 5.1 BLURAY
  • Subtitulos: Español Latino PGS - Ingles PGS
  • Resolución: 1920x1080p
  • Formato: MKV
  • Codec: H.264
  • Encoder: CinefiloCool
  • Mediainfo: Clic para Mostrar Datos Ver
  • Contra lo Imposible (2019) Full HD 1080p Latino-CMHDD.mkv
    Format                      : Matroska
    Format version              : Version 4
    File size                   : 7.49 GiB
    Duration                    : 2 h 32 min
    Overall bit rate            : 7 026 kb/s
    Movie name                  : CinemaniaHDD.Net
    Encoded date                : UTC 2020-02-02 05:37:53
    Writing application         : mkvmerge v42.0.0 ('Overtime') 64-bit
    Writing library             : libebml v1.3.10 + libmatroska v1.5.2
    Attachments                 : CINEMANIAHD.png

    Video
    ID                          : 1
    Format                      : AVC
    Format/Info                 : Advanced Video Codec
    Format profile              : High@L4.1
    Format settings             : CABAC / 4 Ref Frames
    Format settings, CABAC      : Yes
    Format settings, ReFrames   : 4 frames
    Codec ID                    : V_MPEG4/ISO/AVC
    Duration                    : 2 h 32 min
    Bit rate                    : 5 032 kb/s
    Width                       : 1 920 pixels
    Height                      : 1 080 pixels
    Display aspect ratio        : 16:9
    Frame rate mode             : Constant
    Frame rate                  : 23.976 (24000/1001) FPS
    Color space                 : YUV
    Chroma subsampling          : 4:2:0
    Bit depth                   : 8 bits
    Scan type                   : Progressive
    Bits/(Pixel*Frame)          : 0.101
    Stream size                 : 5.36 GiB (72%)
    Title                       : Full HD1080p [Bluray]
    Writing library             : x264 core 157 r2935 545de2f
    Encoding settings           : cabac=1 / ref=4 / deblock=1:0:0 / analyse=0x3:0x133 / me=tesa / subme=11 / psy=1 / psy_rd=1.00:0.00 / mixed_ref=1 / me_range=24 / chroma_me=1 / trellis=2 / 8x8dct=1 / cqm=0 / deadzone=21,11 / fast_pskip=0 / chroma_qp_offset=-2 / threads=34 / lookahead_threads=8 / sliced_threads=0 / nr=0 / decimate=1 / interlaced=0 / bluray_compat=0 / constrained_intra=0 / bframes=16 / b_pyramid=2 / b_adapt=2 / b_bias=0 / direct=3 / weightb=1 / open_gop=0 / weightp=2 / keyint=240 / keyint_min=24 / scenecut=40 / intra_refresh=0 / rc_lookahead=60 / rc=crf / mbtree=1 / crf=20.0 / qcomp=0.60 / qpmin=0 / qpmax=69 / qpstep=4 / vbv_maxrate=62500 / vbv_bufsize=78125 / crf_max=0.0 / nal_hrd=none / filler=0 / ip_ratio=1.40 / aq=1:1.00
    Default                     : Yes
    Forced                      : Yes
    Color range                 : Limited
    Color primaries             : BT.709
    Transfer characteristics    : BT.709
    Matrix coefficients         : BT.709

    Audio #1
    ID                          : 2
    Format                      : AC-3
    Format/Info                 : Audio Coding 3
    Commercial name             : Dolby Digital
    Codec ID                    : A_AC3
    Duration                    : 2 h 32 min
    Bit rate mode               : Constant
    Bit rate                    : 448 kb/s
    Channel(s)                  : 6 channels
    Channel layout              : L R C LFE Ls Rs
    Sampling rate               : 48.0 kHz
    Frame rate                  : 31.250 FPS (1536 SPF)
    Bit depth                   : 16 bits
    Compression mode            : Lossy
    Stream size                 : 489 MiB (6%)
    Title                       : AC3_5.1_Bluray_Esp
    Language                    : Spanish
    Service kind                : Complete Main
    Default                     : Yes
    Forced                      : Yes

    Audio #2
    ID                          : 3
    Format                      : DTS ES
    Format/Info                 : Digital Theater Systems
    Commercial name             : DTS-ES Matrix
    Codec ID                    : A_DTS
    Duration                    : 2 h 32 min
    Bit rate mode               : Constant
    Bit rate                    : 1 509 kb/s
    Channel(s)                  : 6 channels
    Channel(s)_Original         : 7 channels
    Channel layout              : C L R Ls Rs Cb LFE
    Sampling rate               : 48.0 kHz
    Frame rate                  : 93.750 FPS (512 SPF)
    Bit depth                   : 24 bits
    Compression mode            : Lossy
    Stream size                 : 1.61 GiB (21%)
    Title                       : DTS_5.1_Bluray_Eng
    Language                    : English
    Default                     : No
    Forced                      : No

    Text #1
    ID                          : 4
    Format                      : PGS
    Muxing mode                 : zlib
    Codec ID                    : S_HDMV/PGS
    Codec ID/Info               : Picture based subtitle format used on BDs/HD-DVDs
    Duration                    : 1 h 37 min
    Bit rate                    : 370 b/s
    Count of elements           : 24
    Stream size                 : 264 KiB (0%)
    Title                       : Sub_Forzados [PGS]
    Language                    : Spanish
    Default                     : Yes
    Forced                      : Yes

    Text #2
    ID                          : 5
    Format                      : PGS
    Muxing mode                 : zlib
    Codec ID                    : S_HDMV/PGS
    Codec ID/Info               : Picture based subtitle format used on BDs/HD-DVDs
    Duration                    : 2 h 31 min
    Bit rate                    : 32.9 kb/s
    Count of elements           : 3910
    Stream size                 : 35.6 MiB (0%)
    Title                       : Sub_Esp [PGS]
    Language                    : Spanish
    Default                     : No
    Forced                      : No

    Text #3
    ID                          : 6
    Format                      : PGS
    Muxing mode                 : zlib
    Codec ID                    : S_HDMV/PGS
    Codec ID/Info               : Picture based subtitle format used on BDs/HD-DVDs
    Duration                    : 2 h 32 min
    Bit rate                    : 47.0 kb/s
    Count of elements           : 4996
    Stream size                 : 51.3 MiB (1%)
    Title                       : Sub_Eng [PGS]
    Language                    : English
    Default                     : No
    Forced                      : No

    Text #4
    ID                          : 7
    Format                      : UTF-8
    Codec ID                    : S_TEXT/UTF8
    Codec ID/Info               : UTF-8 Plain Text
    Duration                    : 1 h 37 min
    Bit rate                    : 0 b/s
    Count of elements           : 12
    Stream size                 : 333 Bytes (0%)
    Title                       : Sub_Forzados
    Language                    : Spanish
    Default                     : No
    Forced                      : No

    Text #5
    ID                          : 8
    Format                      : UTF-8
    Codec ID                    : S_TEXT/UTF8
    Codec ID/Info               : UTF-8 Plain Text
    Duration                    : 2 h 26 min
    Bit rate                    : 40 b/s
    Count of elements           : 1576
    Stream size                 : 43.4 KiB (0%)
    Title                       : Sub_Esp
    Language                    : Spanish
    Default                     : No
    Forced                      : No

    Menu
    00:00:00.000                : en:Chapter 01
    00:04:45.618                : en:Chapter 02
    00:07:32.535                : en:Chapter 03
    00:10:02.810                : en:Chapter 04
    00:15:39.313                : en:Chapter 05
    00:20:15.172                : en:Chapter 06
    00:21:39.798                : en:Chapter 07
    00:26:00.892                : en:Chapter 08
    00:31:57.874                : en:Chapter 09
    00:34:09.756                : en:Chapter 10
    00:39:13.267                : en:Chapter 11
    00:42:06.899                : en:Chapter 12
    00:45:57.004                : en:Chapter 13
    00:48:38.665                : en:Chapter 14
    00:51:22.079                : en:Chapter 15
    00:55:03.675                : en:Chapter 16
    00:57:50.800                : en:Chapter 17
    01:00:27.040                : en:Chapter 18
    01:06:33.489                : en:Chapter 19
    01:11:59.815                : en:Chapter 20
    01:16:13.777                : en:Chapter 21
    01:19:30.515                : en:Chapter 22
    01:24:18.762                : en:Chapter 23
    01:29:24.984                : en:Chapter 24
    01:33:16.173                : en:Chapter 25
    01:38:11.302                : en:Chapter 26
    01:40:57.468                : en:Chapter 27
    01:43:23.322                : en:Chapter 28
    01:45:49.217                : en:Chapter 29
    01:50:38.965                : en:Chapter 30
    01:53:38.353                : en:Chapter 31
    01:57:47.602                : en:Chapter 32
    02:00:16.667                : en:Chapter 33
    02:05:22.890                : en:Chapter 34
    02:09:18.375                : en:Chapter 35
    02:12:01.496                : en:Chapter 36
    02:15:26.409                : en:Chapter 37
    02:18:23.128                : en:Chapter 38
    02:20:46.438                : en:Chapter 39
    02:26:27.612                : en:Chapter 40

  • Peso: 7.49 GiB

Sinopsis

Descargar Contra lo Imposible (2019) Full HD 1080p Latino. Se centra en un excéntrico y decidido equipo americano de ingenieros y diseñadores liderados por el visionario automovilístico Carroll Shelby (Damon) y su conductor británico Ken Miles (Bale). Henry Ford II y Lee Iacocca les dan la misión de construir desde cero un nuevo automóvil con el fin de derrocar el dominio de Ferrari en el Campeonato del Mundo de Le Mans de 1966.

Ficha técnica

Video trailer de la película

Enlaces de descarga

Rip de Bluray

Descargar Contra lo Imposible (2019) Full HD 1080p Latino




Aportes de DPeliculasHDmega la pass es:dpeliculashdmega.org Aportes de CinemaniaHD la pass es:cinemaniahdd.com

Películas relacionadas

descargar Contra lo Imposible (2019) Full HD 1080p Latino Full 1080p 1080p gratis, Contra lo Imposible (2019) Full HD 1080p Latino Full 1080p mega 1 link, Contra lo Imposible (2019) Full HD 1080p Latino Full 1080p pelicula completa, descargar Contra lo Imposible (2019) Full HD 1080p Latino Full 1080p gratis en mega.

Contra lo Imposible (2019) Full HD 1080p Latino pelicula full hd, Contra lo Imposible (2019) Full HD 1080p Latino mega latino, Contra lo Imposible (2019) Full HD 1080p Latino 4k latino, Contra lo Imposible (2019) Full HD 1080p Latino pelicula completa, Contra lo Imposible (2019) Full HD 1080p Latino descargar gratis, descargar Contra lo Imposible (2019) Full HD 1080p Latino pelicula latino, Contra lo Imposible (2019) Full HD 1080p Latino 1 link mega, Contra lo Imposible (2019) Full HD 1080p Latino 1 link google drive, Contra lo Imposible (2019) Full HD 1080p Latino hd 1080p latino.
Comentarios 0