×

¿Problemas para descargar con Mozilla, EDGE? Deshabilita la opción "Abrir vinculos en una pestaña nueva" tal como lo muestra ésta imagen.

Contra lo Imposible (2019) 4K UHD HDR Latino

2.103 vistas

Información de Contra lo Imposible (2019) 4K UHD HDR Latino

Datos de la película

  • Calidad: 4K HDR
  • Audio: Español Latino AC3 5.1 BLURAY - Ingles AC3 5.1 BLURAY
  • Subtitulos: Español Latino PGS - Ingles PGS
  • Resolución: 3840x1610
  • Formato: MKV
  • Codec: HEVC
  • Encoder: cinemaniahd
  • Mediainfo: Clic para Mostrar Datos Ver
  • Contra Lo Imposible (2019) UHD HDR Latino-CMHDD.mkv
    Format                      : Matroska
    Format version              : Version 4
    File size                   : 12.8 GiB
    Duration                    : 2 h 32 min
    Overall bit rate            : 12.0 Mb/s
    Movie name                  : CinemaniaHDD.Net
    Encoded date                : UTC 2020-01-31 19:47:20
    Writing application         : mkvmerge v42.0.0 ('Overtime') 64-bit
    Writing library             : libebml v1.3.10 + libmatroska v1.5.2
    Attachments                 : CINEMANIAHD.png

    Video
    ID                          : 1
    Format                      : HEVC
    Format/Info                 : High Efficiency Video Coding
    Commercial name             : HDR10
    Format profile              : Main 10@L5.1@High
    Codec ID                    : V_MPEGH/ISO/HEVC
    Duration                    : 2 h 32 min
    Bit rate                    : 10.9 Mb/s
    Width                       : 3 840 pixels
    Height                      : 1 610 pixels
    Display aspect ratio        : 2.40:1
    Frame rate mode             : Constant
    Frame rate                  : 23.976 (24000/1001) FPS
    Color space                 : YUV
    Chroma subsampling          : 4:2:0 (Type 2)
    Bit depth                   : 10 bits
    Bits/(Pixel*Frame)          : 0.074
    Stream size                 : 11.6 GiB (91%)
    Title                       : 2160p HDR [Bluray]
    Writing library             : x265 3.2+37-0aa6c346df23:[Windows][GCC 9.2.1][64 bit] 10bit
    Encoding settings           : cpuid=1111039 / frame-threads=5 / numa-pools=32 / wpp / no-pmode / no-pme / no-psnr / no-ssim / log-level=2 / input-csp=1 / input-res=3840x1610 / interlace=0 / total-frames=219511 / level-idc=51 / high-tier=1 / uhd-bd=0 / ref=4 / no-allow-non-conformance / repeat-headers / annexb / aud / hrd / info / hash=0 / no-temporal-layers / no-open-gop / min-keyint=1 / keyint=24 / gop-lookahead=0 / bframes=4 / b-adapt=2 / b-pyramid / bframe-bias=0 / rc-lookahead=25 / lookahead-slices=4 / scenecut=40 / hist-scenecut=0 / radl=0 / no-splice / no-intra-refresh / ctu=64 / min-cu-size=8 / rect / no-amp / max-tu-size=32 / tu-inter-depth=1 / tu-intra-depth=1 / limit-tu=0 / rdoq-level=2 / dynamic-rd=0.00 / no-ssim-rd / signhide / no-tskip / nr-intra=0 / nr-inter=0 / no-constrained-intra / no-strong-intra-smoothing / max-merge=3 / limit-refs=3 / limit-modes / me=3 / subme=3 / merange=57 / temporal-mvp / no-frame-dup / no-hme / weightp / no-weightb / no-analyze-src-pics / deblock=-3:-3 / no-sao / no-sao-non-deblock / rd=4 / selective-sao=0 / no-early-skip / rskip / no-fast-intra / no-tskip-fast / no-cu-lossless / no-b-intra / no-splitrd-skip / rdpenalty=0 / psy-rd=2.00 / psy-rdoq=1.00 / no-rd-refine / no-lossless / cbqpoffs=0 / crqpoffs=0 / rc=crf / crf=17.0 / qcomp=0.60 / qpstep=4 / stats-write=0 / stats-read=0 / vbv-maxrate=160000 / vbv-bufsize=160000 / vbv-init=0.9 / crf-max=0.0 / crf-min=0.0 / ipratio=1.40 / pbratio=1.30 / aq-mode=2 / aq-strength=1.00 / cutree / zone-count=0 / no-strict-cbr / qg-size=32 / no-rc-grain / qpmax=69 / qpmin=0 / no-const-vbv / sar=1 / overscan=0 / videoformat=5 / range=0 / colorprim=9 / transfer=16 / colormatrix=9 / chromaloc=1 / chromaloc-top=2 / chromaloc-bottom=2 / display-window=0 / master-display=G(13250,34500)B(7500,3000)R(34000,16000)WP(15635,16450)L(10000000,50) / cll=0,0 / min-luma=0 / max-luma=1023 / log2-max-poc-lsb=8 / vui-timing-info / vui-hrd-info / slices=1 / no-opt-qp-pps / no-opt-ref-list-length-pps / no-multi-pass-opt-rps / scenecut-bias=0.05 / hist-threshold=0.01 / no-opt-cu-delta-qp / no-aq-motion / hdr10 / hdr10-opt / no-dhdr10-opt / no-idr-recovery-sei / analysis-reuse-level=0 / analysis-save-reuse-level=0 / analysis-load-reuse-level=0 / scale-factor=0 / refine-intra=0 / refine-inter=0 / refine-mv=1 / refine-ctu-distortion=0 / no-limit-sao / ctu-info=0 / no-lowpass-dct / refine-analysis-type=0 / copy-pic=1 / max-ausize-factor=1.0 / no-dynamic-refine / no-single-sei / no-hevc-aq / no-svt / no-field / qp-adaptation-range=1.00 / no-scenecut-aware-qpconformance-window-offsets / right=0 / bottom=0
    Default                     : Yes
    Forced                      : Yes
    Color range                 : Limited
    Color primaries             : BT.2020
    Transfer characteristics    : PQ
    Matrix coefficients         : BT.2020 non-constant
    Mastering display color pri : Display P3
    Mastering display luminance : min: 0.0050 cd/m2, max: 1000 cd/m2

    Audio #1
    ID                          : 2
    Format                      : AC-3
    Format/Info                 : Audio Coding 3
    Commercial name             : Dolby Digital
    Codec ID                    : A_AC3
    Duration                    : 2 h 32 min
    Bit rate mode               : Constant
    Bit rate                    : 448 kb/s
    Channel(s)                  : 6 channels
    Channel layout              : L R C LFE Ls Rs
    Sampling rate               : 48.0 kHz
    Frame rate                  : 31.250 FPS (1536 SPF)
    Bit depth                   : 16 bits
    Compression mode            : Lossy
    Delay relative to video     : 17 ms
    Stream size                 : 489 MiB (4%)
    Title                       : AC3_5.1_Bluray_Esp
    Language                    : Spanish
    Service kind                : Complete Main
    Default                     : Yes
    Forced                      : Yes

    Audio #2
    ID                          : 3
    Format                      : AC-3
    Format/Info                 : Audio Coding 3
    Commercial name             : Dolby Digital
    Codec ID                    : A_AC3
    Duration                    : 2 h 32 min
    Bit rate mode               : Constant
    Bit rate                    : 640 kb/s
    Channel(s)                  : 6 channels
    Channel layout              : L R C LFE Ls Rs
    Sampling rate               : 48.0 kHz
    Frame rate                  : 31.250 FPS (1536 SPF)
    Bit depth                   : 16 bits
    Compression mode            : Lossy
    Stream size                 : 699 MiB (5%)
    Title                       : AC3_5.1_Bluray_Eng
    Language                    : English
    Service kind                : Complete Main
    Default                     : No
    Forced                      : No

    Text #1
    ID                          : 4
    Format                      : PGS
    Muxing mode                 : zlib
    Codec ID                    : S_HDMV/PGS
    Codec ID/Info               : Picture based subtitle format used on BDs/HD-DVDs
    Duration                    : 2 h 31 min
    Bit rate                    : 557 b/s
    Count of elements           : 52
    Stream size                 : 618 KiB (0%)
    Title                       : Sub_Forzados [PGS]
    Language                    : Spanish
    Default                     : Yes
    Forced                      : Yes

    Text #2
    ID                          : 5
    Format                      : PGS
    Muxing mode                 : zlib
    Codec ID                    : S_HDMV/PGS
    Codec ID/Info               : Picture based subtitle format used on BDs/HD-DVDs
    Duration                    : 2 h 31 min
    Bit rate                    : 32.9 kb/s
    Count of elements           : 3910
    Stream size                 : 35.6 MiB (0%)
    Title                       : Sub_Esp [PGS]
    Language                    : Spanish
    Default                     : No
    Forced                      : No

    Text #3
    ID                          : 6
    Format                      : PGS
    Muxing mode                 : zlib
    Codec ID                    : S_HDMV/PGS
    Codec ID/Info               : Picture based subtitle format used on BDs/HD-DVDs
    Duration                    : 2 h 32 min
    Bit rate                    : 49.8 kb/s
    Count of elements           : 4996
    Stream size                 : 54.3 MiB (0%)
    Title                       : Sub_Eng [PGS]
    Language                    : English
    Default                     : No
    Forced                      : No

    Text #4
    ID                          : 7
    Format                      : UTF-8
    Codec ID                    : S_TEXT/UTF8
    Codec ID/Info               : UTF-8 Plain Text
    Duration                    : 2 h 31 min
    Bit rate                    : 0 b/s
    Count of elements           : 26
    Stream size                 : 967 Bytes (0%)
    Title                       : Sub_Forzados
    Language                    : Spanish
    Default                     : No
    Forced                      : No

    Text #5
    ID                          : 8
    Format                      : UTF-8
    Codec ID                    : S_TEXT/UTF8
    Codec ID/Info               : UTF-8 Plain Text
    Duration                    : 2 h 26 min
    Bit rate                    : 55 b/s
    Count of elements           : 1950
    Stream size                 : 59.1 KiB (0%)
    Title                       : Sub_Esp
    Language                    : Spanish
    Default                     : No
    Forced                      : No

    Menu
    00:00:00.000                : :Chapter 01
    00:04:45.285                : :Chapter 02
    00:07:32.202                : :Chapter 03
    00:10:02.477                : :Chapter 04
    00:15:38.980                : :Chapter 05
    00:20:14.839                : :Chapter 06
    00:21:39.465                : :Chapter 07
    00:26:00.559                : :Chapter 08
    00:31:57.541                : :Chapter 09
    00:34:09.422                : :Chapter 10
    00:39:12.934                : :Chapter 11
    00:42:06.566                : :Chapter 12
    00:45:56.671                : :Chapter 13
    00:48:38.332                : :Chapter 14
    00:51:21.745                : :Chapter 15
    00:55:03.342                : :Chapter 16
    00:57:50.467                : :Chapter 17
    01:00:26.706                : :Chapter 18
    01:06:33.156                : :Chapter 19
    01:11:59.482                : :Chapter 20
    01:16:13.444                : :Chapter 21
    01:19:30.182                : :Chapter 22
    01:24:18.428                : :Chapter 23
    01:29:24.651                : :Chapter 24
    01:33:15.840                : :Chapter 25
    01:38:10.968                : :Chapter 26
    01:40:57.134                : :Chapter 27
    01:43:22.988                : :Chapter 28
    01:45:48.884                : :Chapter 29
    01:50:38.632                : :Chapter 30
    01:53:38.020                : :Chapter 31
    01:57:47.269                : :Chapter 32
    02:00:16.334                : :Chapter 33
    02:05:22.557                : :Chapter 34
    02:09:18.042                : :Chapter 35
    02:12:01.163                : :Chapter 36
    02:15:26.076                : :Chapter 37
    02:18:22.794                : :Chapter 38
    02:20:46.104                : :Chapter 39
    02:26:27.278                : :Chapter 40

  • Peso: 12.8 GiB

Sinopsis

Descargar Contra lo Imposible (2019) 4K UHD HDR Latino. Se centra en un excéntrico y decidido equipo americano de ingenieros y diseñadores liderados por el visionario automovilístico Carroll Shelby (Damon) y su conductor británico Ken Miles (Bale). Henry Ford II y Lee Iacocca les dan la misión de construir desde cero un nuevo automóvil con el fin de derrocar el dominio de Ferrari en el Campeonato del Mundo de Le Mans de 1966.

Ficha técnica

Video trailer de la película

Enlaces de descarga

Rip de Bluray

Descargar Contra lo Imposible (2019) 4K UHD HDR Latino




Aportes de DPeliculasHDmega la pass es:dpeliculashdmega.org Aportes de CinemaniaHD la pass es:cinemaniahdd.com
Guardado en : 4K HDR , 4K UHD , Acción , Drama

Películas relacionadas

descargar Contra lo Imposible (2019) 4K UHD HDR Latino 4K HDR 1080p gratis, Contra lo Imposible (2019) 4K UHD HDR Latino 4K HDR mega 1 link, Contra lo Imposible (2019) 4K UHD HDR Latino 4K HDR pelicula completa, descargar Contra lo Imposible (2019) 4K UHD HDR Latino 4K HDR gratis en mega.

Contra lo Imposible (2019) 4K UHD HDR Latino pelicula full hd, Contra lo Imposible (2019) 4K UHD HDR Latino mega latino, Contra lo Imposible (2019) 4K UHD HDR Latino 4k latino, Contra lo Imposible (2019) 4K UHD HDR Latino pelicula completa, Contra lo Imposible (2019) 4K UHD HDR Latino descargar gratis, descargar Contra lo Imposible (2019) 4K UHD HDR Latino pelicula latino, Contra lo Imposible (2019) 4K UHD HDR Latino 1 link mega, Contra lo Imposible (2019) 4K UHD HDR Latino 1 link google drive, Contra lo Imposible (2019) 4K UHD HDR Latino hd 1080p latino.
Comentarios 0