×

¿Problemas para descargar con Mozilla, EDGE? Deshabilita la opción "Abrir vinculos en una pestaña nueva" tal como lo muestra ésta imagen.

James Bond: Sólo para Tus Ojos (1981) REMUX 1080p Latino

391 vistas

Información de James Bond: Sólo para Tus Ojos (1981) REMUX 1080p Latino

Datos de la película

  • Calidad: Full 1080p
  • Audio: Español Latino AC3 5.1 BLURAY - Ingles DTS 5.1 BLURAY
  • Subtitulos: Español Latino PGS - Ingles PGS
  • Resolución: 1920x1080p
  • Formato: MKV
  • Codec: H.264
  • Encoder: CinefiloCool
  • Mediainfo: Clic para Mostrar Datos Ver
  • Solo Para Tus Ojos (1981) REMUX 1080p Latino-CMHDD.mkv
    Format                      : Matroska
    Format version              : Version 4
    File size                   : 25.9 GiB
    Duration                    : 2 h 7 min
    Overall bit rate mode       : Variable
    Overall bit rate            : 28.9 Mb/s
    Movie name                  : For Your Eyes Only (1981) CinemaniaHDD.Net
    Encoded date                : UTC 2020-06-04 05:28:32
    Writing application         : mkvmerge v46.0.0 ('No Deeper Escape') 64-bit
    Writing library             : libebml v1.3.10 + libmatroska v1.5.2
    Attachments                 : CINEMANIAHD.png

    Video
    ID                          : 1
    Format                      : AVC
    Format/Info                 : Advanced Video Codec
    Format profile              : High@L4.1
    Format settings             : CABAC / 4 Ref Frames
    Format settings, CABAC      : Yes
    Format settings, Reference  : 4 frames
    Codec ID                    : V_MPEG4/ISO/AVC
    Duration                    : 2 h 7 min
    Bit rate mode               : Variable
    Bit rate                    : 26.2 Mb/s
    Maximum bit rate            : 35.0 Mb/s
    Width                       : 1 920 pixels
    Height                      : 1 080 pixels
    Display aspect ratio        : 16:9
    Frame rate mode             : Constant
    Frame rate                  : 23.976 (24000/1001) FPS
    Color space                 : YUV
    Chroma subsampling          : 4:2:0
    Bit depth                   : 8 bits
    Scan type                   : Progressive
    Bits/(Pixel*Frame)          : 0.527
    Stream size                 : 23.4 GiB (91%)
    Title                       : REMUX 1080p [CinemaniaHDD]
    Language                    : English
    Default                     : Yes
    Forced                      : No
    Color range                 : Limited
    Color primaries             : BT.709
    Transfer characteristics    : BT.709
    Matrix coefficients         : BT.709

    Audio #1
    ID                          : 2
    Format                      : AC-3
    Format/Info                 : Audio Coding 3
    Commercial name             : Dolby Digital
    Codec ID                    : A_AC3
    Duration                    : 2 h 7 min
    Bit rate mode               : Constant
    Bit rate                    : 448 kb/s
    Channel(s)                  : 6 channels
    Channel layout              : L R C LFE Ls Rs
    Sampling rate               : 48.0 kHz
    Frame rate                  : 31.250 FPS (1536 SPF)
    Compression mode            : Lossy
    Stream size                 : 410 MiB (2%)
    Title                       : Español Latino [CinemaniaHDD]
    Language                    : Spanish
    Service kind                : Complete Main
    Default                     : Yes
    Forced                      : No

    Audio #2
    ID                          : 3
    Format                      : DTS XLL
    Format/Info                 : Digital Theater Systems
    Commercial name             : DTS-HD Master Audio
    Codec ID                    : A_DTS
    Duration                    : 2 h 7 min
    Bit rate mode               : Variable
    Bit rate                    : 2 262 kb/s
    Channel(s)                  : 6 channels
    Channel layout              : C L R Ls Rs LFE
    Sampling rate               : 48.0 kHz
    Frame rate                  : 93.750 FPS (512 SPF)
    Bit depth                   : 24 bits
    Compression mode            : Lossless
    Stream size                 : 2.02 GiB (8%)
    Title                       : Ingles [CinemaniaHDD]
    Language                    : English
    Default                     : No
    Forced                      : No

    Text #1
    ID                          : 4
    Format                      : PGS
    Muxing mode                 : zlib
    Codec ID                    : S_HDMV/PGS
    Codec ID/Info               : Picture based subtitle format used on BDs/HD-DVDs
    Duration                    : 2 h 6 min
    Bit rate                    : 234 b/s
    Count of elements           : 26
    Stream size                 : 218 KiB (0%)
    Title                       : Forzados-PGS [CinemaniaHDD]
    Language                    : Spanish
    Default                     : Yes
    Forced                      : No

    Text #2
    ID                          : 5
    Format                      : PGS
    Muxing mode                 : zlib
    Codec ID                    : S_HDMV/PGS
    Codec ID/Info               : Picture based subtitle format used on BDs/HD-DVDs
    Duration                    : 2 h 6 min
    Bit rate                    : 16.2 kb/s
    Count of elements           : 1792
    Stream size                 : 14.7 MiB (0%)
    Title                       : Español-PGS [CinemaniaHDD]
    Language                    : Spanish
    Default                     : No
    Forced                      : No

    Text #3
    ID                          : 6
    Format                      : PGS
    Muxing mode                 : zlib
    Codec ID                    : S_HDMV/PGS
    Codec ID/Info               : Picture based subtitle format used on BDs/HD-DVDs
    Duration                    : 2 h 4 min
    Bit rate                    : 16.2 kb/s
    Count of elements           : 1254
    Stream size                 : 14.3 MiB (0%)
    Title                       : Ingles-PGS [CinemaniaHDD]
    Language                    : English
    Default                     : No
    Forced                      : No

    Text #4
    ID                          : 7
    Format                      : UTF-8
    Codec ID                    : S_TEXT/UTF8
    Codec ID/Info               : UTF-8 Plain Text
    Duration                    : 2 h 6 min
    Bit rate                    : 0 b/s
    Count of elements           : 16
    Stream size                 : 434 Bytes (0%)
    Title                       : Forzados-SRT [CinemaniaHDD]
    Language                    : Spanish
    Default                     : No
    Forced                      : No

    Text #5
    ID                          : 8
    Format                      : UTF-8
    Codec ID                    : S_TEXT/UTF8
    Codec ID/Info               : UTF-8 Plain Text
    Duration                    : 2 h 6 min
    Bit rate                    : 30 b/s
    Count of elements           : 1034
    Stream size                 : 28.6 KiB (0%)
    Title                       : Español-SRT [CinemaniaHDD]
    Language                    : Spanish
    Default                     : No
    Forced                      : No

    Menu
    00:00:00.000                : en:Chapter 01
    00:06:38.564                : en:Chapter 02
    00:09:22.311                : en:Chapter 03
    00:13:56.669                : en:Chapter 04
    00:16:52.928                : en:Chapter 05
    00:19:04.685                : en:Chapter 06
    00:24:12.075                : en:Chapter 07
    00:28:31.918                : en:Chapter 08
    00:33:46.858                : en:Chapter 09
    00:39:28.657                : en:Chapter 10
    00:43:02.162                : en:Chapter 11
    00:47:05.322                : en:Chapter 12
    00:51:58.156                : en:Chapter 13
    00:55:37.334                : en:Chapter 14
    00:58:33.718                : en:Chapter 15
    01:00:35.882                : en:Chapter 16
    01:04:41.627                : en:Chapter 17
    01:11:07.263                : en:Chapter 18
    01:14:30.215                : en:Chapter 19
    01:18:40.966                : en:Chapter 20
    01:20:26.238                : en:Chapter 21
    01:23:37.679                : en:Chapter 22
    01:33:15.172                : en:Chapter 23
    01:37:45.359                : en:Chapter 24
    01:42:51.748                : en:Chapter 25
    01:44:55.706                : en:Chapter 26
    01:53:52.784                : en:Chapter 27
    01:57:19.907                : en:Chapter 28
    02:00:20.338                : en:Chapter 29
    02:01:12.348                : en:Chapter 30
    02:03:19.975                : en:Chapter 31
    02:05:19.762                : en:Chapter 32

  • Peso: 25.9 GiB

Sinopsis

Descargar James Bond: Sólo para Tus Ojos (1981) REMUX 1080p Latino. En esta entrega el agente 007 deberá ir en busca de un dispositivo secreto perteneciente a los militares. Para ello, utilizará sus numerosas habilidades como agente secreto e intentará evitar que dicho dispositivo caiga en manos de los enemigos.

Ficha técnica

Video trailer de la película

Enlaces de descarga

Rip de Bluray

Descargar James Bond: Sólo para Tus Ojos (1981) REMUX 1080p Latino




Aportes de DPeliculasHDmega la pass es:dpeliculashdmega.org Aportes de CinemaniaHD la pass es:cinemaniahdd.com
Guardado en : Acción , Aventura , Remux , Suspenso

Películas relacionadas

  • Hombre de familia (2000) REMUX 1080p Latino

    Hombre de familia (2000) REMUX 1080p Latino

    2000
    Hombre de familia (2000) REMUX 1080p Latino

    2h 1m 2000

    Descargar Hombre de familia (2000) REMUX 1080p Latino. Jack Campbell es un egocéntrico broker de Wall...

    Director: Robert Schroer

    Género: Comedia

    Actores: Wass Stevens

  • Anon (2018) REMUX 1080p Latino

    Anon (2018) REMUX 1080p Latino

    2018
    Anon (2018) REMUX 1080p Latino

    1h 40m 2018

    Descargar Anon (2018) REMUX 1080p Latino. Anon nos lleva hasta un futuro no muy lejano al estilo soviético,...

    Director: Sarah Campbell

    Género: Ciencia ficción

    Actores: Zion Lee

descargar James Bond: Sólo para Tus Ojos (1981) REMUX 1080p Latino Full 1080p 1080p gratis, James Bond: Sólo para Tus Ojos (1981) REMUX 1080p Latino Full 1080p mega 1 link, James Bond: Sólo para Tus Ojos (1981) REMUX 1080p Latino Full 1080p pelicula completa, descargar James Bond: Sólo para Tus Ojos (1981) REMUX 1080p Latino Full 1080p gratis en mega.

James Bond: Sólo para Tus Ojos (1981) REMUX 1080p Latino pelicula full hd, James Bond: Sólo para Tus Ojos (1981) REMUX 1080p Latino mega latino, James Bond: Sólo para Tus Ojos (1981) REMUX 1080p Latino 4k latino, James Bond: Sólo para Tus Ojos (1981) REMUX 1080p Latino pelicula completa, James Bond: Sólo para Tus Ojos (1981) REMUX 1080p Latino descargar gratis, descargar James Bond: Sólo para Tus Ojos (1981) REMUX 1080p Latino pelicula latino, James Bond: Sólo para Tus Ojos (1981) REMUX 1080p Latino 1 link mega, James Bond: Sólo para Tus Ojos (1981) REMUX 1080p Latino 1 link google drive, James Bond: Sólo para Tus Ojos (1981) REMUX 1080p Latino hd 1080p latino.
Comentarios 0