×

¿Problemas para descargar con Mozilla, EDGE? Deshabilita la opción "Abrir vinculos en una pestaña nueva" tal como lo muestra ésta imagen.

James Bond: Sólo para Tus Ojos (1981) Full HD 1080p Latino

951 vistas

Información de James Bond: Sólo para Tus Ojos (1981) Full HD 1080p Latino

Datos de la película

  • Calidad: Full 1080p
  • Audio: Español Latino AC3 5.1 BLURAY - Ingles DTS 5.1 BLURAY
  • Subtitulos: Español Latino PGS - Ingles PGS
  • Resolución: 1920x1080p
  • Formato: MKV
  • Codec: H.264
  • Encoder: Dracarys
  • Mediainfo: Clic para Mostrar Datos Ver
  • Solo Para Tus Ojos (1981) Full HD 1080p Latino-CMHDD.mkv
    Format                      : Matroska
    Format version              : Version 4
    File size                   : 6.72 GiB
    Duration                    : 2 h 7 min
    Overall bit rate            : 7 520 kb/s
    Movie name                  : For Your Eyes Only (1981) CinemaniaHDD.Net
    Encoded date                : UTC 2020-06-04 05:22:10
    Writing application         : mkvmerge v46.0.0 ('No Deeper Escape') 64-bit
    Writing library             : libebml v1.3.10 + libmatroska v1.5.2
    Attachments                 : CINEMANIAHD.png

    Video
    ID                          : 1
    Format                      : AVC
    Format/Info                 : Advanced Video Codec
    Format profile              : High@L4.1
    Format settings             : CABAC / 4 Ref Frames
    Format settings, CABAC      : Yes
    Format settings, Reference  : 4 frames
    Codec ID                    : V_MPEG4/ISO/AVC
    Duration                    : 2 h 7 min
    Bit rate                    : 5 548 kb/s
    Width                       : 1 920 pixels
    Height                      : 1 080 pixels
    Display aspect ratio        : 16:9
    Frame rate mode             : Constant
    Frame rate                  : 23.976 (24000/1001) FPS
    Color space                 : YUV
    Chroma subsampling          : 4:2:0
    Bit depth                   : 8 bits
    Scan type                   : Progressive
    Bits/(Pixel*Frame)          : 0.112
    Stream size                 : 4.96 GiB (74%)
    Title                       : Full HD1080p [CinemaniaHDD]
    Writing library             : x264 core 148 r2708 86b7198
    Encoding settings           : cabac=1 / ref=4 / deblock=1:0:0 / analyse=0x3:0x133 / me=esa / subme=10 / psy=1 / psy_rd=1.00:0.00 / mixed_ref=1 / me_range=24 / chroma_me=1 / trellis=2 / 8x8dct=1 / cqm=0 / deadzone=21,11 / fast_pskip=1 / chroma_qp_offset=-2 / threads=34 / lookahead_threads=5 / sliced_threads=0 / nr=0 / decimate=1 / interlaced=0 / bluray_compat=0 / constrained_intra=0 / bframes=8 / b_pyramid=2 / b_adapt=2 / b_bias=0 / direct=3 / weightb=1 / open_gop=0 / weightp=2 / keyint=240 / keyint_min=24 / scenecut=40 / intra_refresh=0 / rc_lookahead=60 / rc=crf / mbtree=1 / crf=20.0 / qcomp=0.60 / qpmin=0 / qpmax=69 / qpstep=4 / vbv_maxrate=62500 / vbv_bufsize=78125 / crf_max=0.0 / nal_hrd=none / filler=0 / ip_ratio=1.40 / aq=1:1.00
    Language                    : English
    Default                     : Yes
    Forced                      : No
    Color range                 : Limited
    Color primaries             : BT.709
    Transfer characteristics    : BT.709
    Matrix coefficients         : BT.709

    Audio #1
    ID                          : 2
    Format                      : AC-3
    Format/Info                 : Audio Coding 3
    Commercial name             : Dolby Digital
    Codec ID                    : A_AC3
    Duration                    : 2 h 7 min
    Bit rate mode               : Constant
    Bit rate                    : 448 kb/s
    Channel(s)                  : 6 channels
    Channel layout              : L R C LFE Ls Rs
    Sampling rate               : 48.0 kHz
    Frame rate                  : 31.250 FPS (1536 SPF)
    Compression mode            : Lossy
    Stream size                 : 410 MiB (6%)
    Title                       : Español Latino [CinemaniaHDD]
    Language                    : Spanish
    Service kind                : Complete Main
    Default                     : Yes
    Forced                      : No

    Audio #2
    ID                          : 3
    Format                      : DTS
    Format/Info                 : Digital Theater Systems
    Codec ID                    : A_DTS
    Duration                    : 2 h 7 min
    Bit rate mode               : Constant
    Bit rate                    : 1 509 kb/s
    Channel(s)                  : 6 channels
    Channel layout              : C L R Ls Rs LFE
    Sampling rate               : 48.0 kHz
    Frame rate                  : 93.750 FPS (512 SPF)
    Bit depth                   : 24 bits
    Compression mode            : Lossy
    Stream size                 : 1.35 GiB (20%)
    Title                       : Ingles [CinemaniaHDD]
    Language                    : English
    Default                     : No
    Forced                      : No

    Text #1
    ID                          : 4
    Format                      : PGS
    Muxing mode                 : zlib
    Codec ID                    : S_HDMV/PGS
    Codec ID/Info               : Picture based subtitle format used on BDs/HD-DVDs
    Duration                    : 2 h 6 min
    Bit rate                    : 234 b/s
    Count of elements           : 26
    Stream size                 : 218 KiB (0%)
    Title                       : Forzados-PGS [CinemaniaHDD]
    Language                    : Spanish
    Default                     : Yes
    Forced                      : No

    Text #2
    ID                          : 5
    Format                      : PGS
    Muxing mode                 : zlib
    Codec ID                    : S_HDMV/PGS
    Codec ID/Info               : Picture based subtitle format used on BDs/HD-DVDs
    Duration                    : 2 h 6 min
    Bit rate                    : 16.2 kb/s
    Count of elements           : 1792
    Stream size                 : 14.7 MiB (0%)
    Title                       : Español-PGS [CinemaniaHDD]
    Language                    : Spanish
    Default                     : No
    Forced                      : No

    Text #3
    ID                          : 6
    Format                      : PGS
    Muxing mode                 : zlib
    Codec ID                    : S_HDMV/PGS
    Codec ID/Info               : Picture based subtitle format used on BDs/HD-DVDs
    Duration                    : 2 h 7 min
    Bit rate                    : 23.5 kb/s
    Count of elements           : 2423
    Stream size                 : 21.4 MiB (0%)
    Title                       : Ingles-PGS [CinemaniaHDD]
    Language                    : English
    Default                     : No
    Forced                      : No

    Text #4
    ID                          : 7
    Format                      : UTF-8
    Codec ID                    : S_TEXT/UTF8
    Codec ID/Info               : UTF-8 Plain Text
    Duration                    : 2 h 6 min
    Bit rate                    : 0 b/s
    Count of elements           : 16
    Stream size                 : 434 Bytes (0%)
    Title                       : Forzados-SRT [CinemaniaHDD]
    Language                    : Spanish
    Default                     : No
    Forced                      : No

    Text #5
    ID                          : 8
    Format                      : UTF-8
    Codec ID                    : S_TEXT/UTF8
    Codec ID/Info               : UTF-8 Plain Text
    Duration                    : 2 h 6 min
    Bit rate                    : 30 b/s
    Count of elements           : 1034
    Stream size                 : 28.6 KiB (0%)
    Title                       : Español-SRT [CinemaniaHDD]
    Language                    : Spanish
    Default                     : No
    Forced                      : No

    Menu
    00:00:00.000                : :Chapter 1
    00:06:38.565                : :Chapter 2
    00:09:22.312                : :Chapter 3
    00:13:56.669                : :Chapter 4
    00:16:52.929                : :Chapter 5
    00:19:04.685                : :Chapter 6
    00:24:12.076                : :Chapter 7
    00:28:31.919                : :Chapter 8
    00:33:46.858                : :Chapter 9
    00:39:28.658                : :Chapter 10
    00:43:02.163                : :Chapter 11
    00:47:05.323                : :Chapter 12
    00:51:58.157                : :Chapter 13
    00:55:37.334                : :Chapter 14
    00:58:33.719                : :Chapter 15
    01:00:35.882                : :Chapter 16
    01:04:41.628                : :Chapter 17
    01:11:07.263                : :Chapter 18
    01:14:30.216                : :Chapter 19
    01:18:40.966                : :Chapter 20
    01:20:26.238                : :Chapter 21
    01:23:37.679                : :Chapter 22
    01:33:15.173                : :Chapter 23
    01:37:45.360                : :Chapter 24
    01:42:51.749                : :Chapter 25
    01:44:55.706                : :Chapter 26
    01:53:52.784                : :Chapter 27
    01:57:19.908                : :Chapter 28
    02:00:20.338                : :Chapter 29
    02:01:12.348                : :Chapter 30
    02:03:19.976                : :Chapter 31
    02:05:19.762                : :Chapter 32

  • Peso: 6.72 GiB

Sinopsis

Descargar James Bond: Sólo para Tus Ojos (1981) Full HD 1080p Latino. En esta entrega el agente 007 deberá ir en busca de un dispositivo secreto perteneciente a los militares. Para ello, utilizará sus numerosas habilidades como agente secreto e intentará evitar que dicho dispositivo caiga en manos de los enemigos.

RESUBIDO!

Ficha técnica

Video trailer de la película

Enlaces de descarga

Rip de Bluray

Descargar James Bond: Sólo para Tus Ojos (1981) Full HD 1080p Latino




Aportes de DPeliculasHDmega la pass es:dpeliculashdmega.org Aportes de CinemaniaHD la pass es:cinemaniahdd.com

Películas relacionadas

  • Corazón de tinta (2008) Full HD 1080p Latino

    Corazón de tinta (2008) Full HD 1080p Latino

    2008
    Corazón de tinta (2008) Full HD 1080p Latino

    1h 46m 2008

    Descargar Corazón de tinta (2008) Full HD 1080p Latino. Mortimer “Mo” Folchart y su hija de 12 años,...

    Director: Sharon Mansfield

    Género: Aventura

    Actores: Terry Cavanagh

  • Corazón de tinta (2008) REMUX 1080p Latino

    Corazón de tinta (2008) REMUX 1080p Latino

    2008
    Corazón de tinta (2008) REMUX 1080p Latino

    1h 46m 2008

    Descargar Corazón de tinta (2008) REMUX 1080p Latino. Mortimer “Mo” Folchart y su hija de 12 años,...

    Director: Sharon Mansfield

    Género: Aventura

    Actores: Tereza Srbová

  • Juego de espías (2001) 1080p Latino

    Juego de espías (2001) 1080p Latino

    2001
    Juego de espías (2001) 1080p Latino

    2h 6m 2001

    Descargar Juego de espías (2001) 1080p Latino. Corre el año 1991, y al veterano agente de la CIA Nathan...

    Director: Tony Scott

    Género: Acción

    Actores: Zsolt Zágoni

  • Juego de espías (2001) Full HD 1080p Latino

    Juego de espías (2001) Full HD 1080p Latino

    2001
    Juego de espías (2001) Full HD 1080p Latino

    2h 6m 2001

    Descargar Juego de espías (2001) Full HD 1080p Latino. Corre el año 1991, y al veterano agente de la...

    Director: Tony Scott

    Género: Acción

    Actores: Zsolt Zágoni

descargar James Bond: Sólo para Tus Ojos (1981) Full HD 1080p Latino Full 1080p 1080p gratis, James Bond: Sólo para Tus Ojos (1981) Full HD 1080p Latino Full 1080p mega 1 link, James Bond: Sólo para Tus Ojos (1981) Full HD 1080p Latino Full 1080p pelicula completa, descargar James Bond: Sólo para Tus Ojos (1981) Full HD 1080p Latino Full 1080p gratis en mega.

James Bond: Sólo para Tus Ojos (1981) Full HD 1080p Latino pelicula full hd, James Bond: Sólo para Tus Ojos (1981) Full HD 1080p Latino mega latino, James Bond: Sólo para Tus Ojos (1981) Full HD 1080p Latino 4k latino, James Bond: Sólo para Tus Ojos (1981) Full HD 1080p Latino pelicula completa, James Bond: Sólo para Tus Ojos (1981) Full HD 1080p Latino descargar gratis, descargar James Bond: Sólo para Tus Ojos (1981) Full HD 1080p Latino pelicula latino, James Bond: Sólo para Tus Ojos (1981) Full HD 1080p Latino 1 link mega, James Bond: Sólo para Tus Ojos (1981) Full HD 1080p Latino 1 link google drive, James Bond: Sólo para Tus Ojos (1981) Full HD 1080p Latino hd 1080p latino.
Comentarios 1
  • ocpgaiden - 26 julio, 2018

    gracias por solo para tus ojos, saludos