×

¿Problemas para descargar con Mozilla, EDGE? Deshabilita la opción "Abrir vinculos en una pestaña nueva" tal como lo muestra ésta imagen.

For Love or Money (1993) REMUX 1080p Latino – CMHDD

163 vistas

Información de For Love or Money (1993) REMUX 1080p Latino – CMHDD

Datos de la película

  • Calidad: Full 1080p
  • Audio: Español Latino DTS 2.0 BLURAY - Ingles DTS 5.1 BLURAY
  • Subtitulos: Español Latino PGS
  • Resolución: 1920x1080p
  • Formato: MKV
  • Codec: H.264
  • Encoder: Dracarys
  • Mediainfo: Clic para Mostrar Datos Ver
  • Format                      : Matroska
    Format version              : Version 4
    File size                   : 24.3 GiB
    Duration                    : 1 h 35 min
    Overall bit rate mode       : Variable
    Overall bit rate            : 36.6 Mb/s
    Movie name                  : For Love or Money (1993) REMUX 1080p Latino - CMHDD
    Encoded date                : UTC 2023-08-30 15:18:23
    Writing application         : mkvmerge v47.0.0 ('Black Flag') 64-bit
    Writing library             : libebml v1.3.10 + libmatroska v1.5.2
    Cover                       : Yes
    Attachments                 : cover.jpg

    Video
    ID                          : 1
    ID in the original source m : 4113 (0x1011)
    Format                      : AVC
    Format/Info                 : Advanced Video Codec
    Format profile              : High@L4.1
    Format settings             : CABAC / 4 Ref Frames
    Format settings, CABAC      : Yes
    Format settings, Reference  : 4 frames
    Format settings, GOP        : M=3, N=12
    Codec ID                    : V_MPEG4/ISO/AVC
    Duration                    : 1 h 35 min
    Bit rate mode               : Variable
    Bit rate                    : 32.0 Mb/s
    Maximum bit rate            : 33.0 Mb/s
    Width                       : 1 920 pixels
    Height                      : 1 080 pixels
    Display aspect ratio        : 16:9
    Frame rate mode             : Constant
    Frame rate                  : 23.976 (24000/1001) FPS
    Color space                 : YUV
    Chroma subsampling          : 4:2:0
    Bit depth                   : 8 bits
    Scan type                   : Progressive
    Bits/(Pixel*Frame)          : 0.644
    Stream size                 : 21.3 GiB (88%)
    Default                     : Yes
    Forced                      : No
    Original source medium      : Blu-ray

    Audio #1
    ID                          : 2
    ID in the original source m : 4352 (0x1100)
    Format                      : DTS XLL
    Format/Info                 : Digital Theater Systems
    Commercial name             : DTS-HD Master Audio
    Codec ID                    : A_DTS
    Duration                    : 1 h 35 min
    Bit rate mode               : Variable
    Bit rate                    : 3 776 kb/s
    Channel(s)                  : 6 channels
    Channel layout              : C L R Ls Rs LFE
    Sampling rate               : 48.0 kHz
    Frame rate                  : 93.750 FPS (512 SPF)
    Bit depth                   : 24 bits
    Compression mode            : Lossless
    Stream size                 : 2.51 GiB (10%)
    Language                    : English
    Default                     : No
    Forced                      : No
    Original source medium      : Blu-ray

    Audio #2
    ID                          : 3
    ID in the original source m : 4353 (0x1101)
    Format                      : DTS
    Format/Info                 : Digital Theater Systems
    Codec ID                    : A_DTS
    Duration                    : 1 h 35 min
    Bit rate mode               : Constant
    Bit rate                    : 768 kb/s
    Channel(s)                  : 2 channels
    Channel layout              : Lt Rt
    Sampling rate               : 48.0 kHz
    Frame rate                  : 93.750 FPS (512 SPF)
    Bit depth                   : 24 bits
    Compression mode            : Lossy
    Stream size                 : 523 MiB (2%)
    Language                    : Spanish
    Default                     : Yes
    Forced                      : No
    Original source medium      : Blu-ray

    Text
    ID                          : 4
    ID in the original source m : 4609 (0x1201)
    Format                      : PGS
    Muxing mode                 : zlib
    Codec ID                    : S_HDMV/PGS
    Codec ID/Info               : Picture based subtitle format used on BDs/HD-DVDs
    Duration                    : 1 h 28 min
    Bit rate                    : 35.3 kb/s
    Frame rate                  : 0.436 FPS
    Count of elements           : 2315
    Stream size                 : 22.4 MiB (0%)
    Language                    : Spanish
    Default                     : No
    Forced                      : No
    Original source medium      : Blu-ray

    Menu
    00:00:00.000                : en:Capítulo 01
    00:02:05.834                : en:Capítulo 02
    00:13:27.640                : en:Capítulo 03
    00:18:36.073                : en:Capítulo 04
    00:21:50.142                : en:Capítulo 05
    00:29:51.664                : en:Capítulo 06
    00:31:03.278                : en:Capítulo 07
    00:42:29.213                : en:Capítulo 08
    00:49:26.296                : en:Capítulo 09
    01:01:39.904                : en:Capítulo 10
    01:03:24.050                : en:Capítulo 11
    01:07:22.872                : en:Capítulo 12
    01:11:16.855                : en:Capítulo 13
    01:16:06.687                : en:Capítulo 14
    01:17:10.125                : en:Capítulo 15
    01:20:23.610                : en:Capítulo 16
    01:23:49.941                : en:Capítulo 17
    01:28:07.615                : en:Capítulo 18
    01:29:28.488                : en:Capítulo 19
    01:30:14.200                : en:Capítulo 20

  • Peso: 24.3 GiB

Sinopsis

Doug es el conserje de un hotel de lujo, capaz de proporcionar cualquier cosa que los clientes deseen. Durante años ha ahorrado hasta el último dólar con el fin de lograr su gran sueño: adquirir un antiguo edificio y convertirlo en un gran hotel. Para ello necesita la ayuda de contactos de Hannover, un «tiburón» de las finanzas, de cuya chica se ha enamorado.

Ficha técnica

Video trailer de la película

Enlaces de descarga

Rip de Bluray

Descargar For Love or Money (1993) REMUX 1080p Latino – CMHDD


Aportes de DPeliculasHDmega la pass es:dpeliculashdmega.org Aportes de CinemaniaHD la pass es:cinemaniahdd.com Aportes recientes:cinemaniahdd.net
Guardado en : Comedia , Romance

Películas relacionadas

descargar For Love or Money (1993) REMUX 1080p Latino – CMHDD Full 1080p 1080p gratis, For Love or Money (1993) REMUX 1080p Latino – CMHDD Full 1080p mega 1 link, For Love or Money (1993) REMUX 1080p Latino – CMHDD Full 1080p pelicula completa, descargar For Love or Money (1993) REMUX 1080p Latino – CMHDD Full 1080p gratis en mega.

For Love or Money (1993) REMUX 1080p Latino – CMHDD pelicula full hd, For Love or Money (1993) REMUX 1080p Latino – CMHDD mega latino, For Love or Money (1993) REMUX 1080p Latino – CMHDD 4k latino, For Love or Money (1993) REMUX 1080p Latino – CMHDD pelicula completa, For Love or Money (1993) REMUX 1080p Latino – CMHDD descargar gratis, descargar For Love or Money (1993) REMUX 1080p Latino – CMHDD pelicula latino, For Love or Money (1993) REMUX 1080p Latino – CMHDD 1 link mega, For Love or Money (1993) REMUX 1080p Latino – CMHDD 1 link google drive, For Love or Money (1993) REMUX 1080p Latino – CMHDD hd 1080p latino.
Comentarios 0