×

¿Problemas para descargar con Mozilla, EDGE? Deshabilita la opción "Abrir vinculos en una pestaña nueva" tal como lo muestra ésta imagen.

For Life (2020) Temporada 1 WEB-DL 1080p Latino

459 vistas

Información de For Life (2020) Temporada 1 WEB-DL 1080p Latino

Datos de la película

  • Calidad: WEBDL
  • Audio: Español Latino AC3 2.0 WEB-DL - Ingles AC3 5.1 WEB-DL
  • Subtitulos: No
  • Resolución: 1920x1080
  • Formato: MKV
  • Codec: H.264
  • Encoder: cinemaniahdd
  • Mediainfo: Clic para Mostrar Datos Ver
  • For Life T01E02 ABC WEB-DL 1080p Latino [CNMNHDD].mkv
    Format                      : Matroska
    Format version              : Version 4
    File size                   : 1.58 GiB
    Duration                    : 43 min 2 s
    Overall bit rate            : 5 255 kb/s
    Movie name                  : For Life T01E02 - CinemaniaHDD.Net
    Encoded date                : UTC 2020-08-30 21:45:24
    Writing application         : mkvmerge v46.0.0 ('No Deeper Escape') 64-bit
    Writing library             : libebml v1.3.10 + libmatroska v1.5.2

    Video
    ID                          : 1
    Format                      : AVC
    Format/Info                 : Advanced Video Codec
    Format profile              : High@L4
    Format settings             : CABAC / 4 Ref Frames
    Format settings, CABAC      : Yes
    Format settings, Reference  : 4 frames
    Codec ID                    : V_MPEG4/ISO/AVC
    Duration                    : 43 min 1 s
    Bit rate                    : 4 741 kb/s
    Width                       : 1 920 pixels
    Height                      : 1 080 pixels
    Display aspect ratio        : 16:9
    Frame rate mode             : Constant
    Frame rate                  : 23.976 (24000/1001) FPS
    Color space                 : YUV
    Chroma subsampling          : 4:2:0
    Bit depth                   : 8 bits
    Scan type                   : Progressive
    Bits/(Pixel*Frame)          : 0.095
    Stream size                 : 1.43 GiB (90%)
    Title                       : CinemaniaHDD.Net
    Default                     : Yes
    Forced                      : No

    Audio #1
    ID                          : 2
    Format                      : AC-3
    Format/Info                 : Audio Coding 3
    Commercial name             : Dolby Digital
    Codec ID                    : A_AC3
    Duration                    : 43 min 2 s
    Bit rate mode               : Constant
    Bit rate                    : 256 kb/s
    Channel(s)                  : 2 channels
    Channel layout              : L R
    Sampling rate               : 48.0 kHz
    Frame rate                  : 31.250 FPS (1536 SPF)
    Compression mode            : Lossy
    Stream size                 : 78.8 MiB (5%)
    Title                       : Español latino [CinemaniaHDD]
    Language                    : Spanish
    Service kind                : Complete Main
    Default                     : Yes
    Forced                      : No

    Audio #2
    ID                          : 3
    Format                      : E-AC-3
    Format/Info                 : Enhanced AC-3
    Commercial name             : Dolby Digital Plus
    Codec ID                    : A_EAC3
    Duration                    : 43 min 2 s
    Bit rate mode               : Constant
    Bit rate                    : 256 kb/s
    Channel(s)                  : 6 channels
    Channel layout              : L R C LFE Ls Rs
    Sampling rate               : 48.0 kHz
    Frame rate                  : 31.250 FPS (1536 SPF)
    Compression mode            : Lossy
    Stream size                 : 78.8 MiB (5%)
    Title                       : Inglés [CinemaniaHDD]
    Language                    : English
    Service kind                : Complete Main
    Default                     : No
    Forced                      : No

     

  • Peso: 1.58 GiB C/U --- 19 GiB en 13 Chapters.

Sinopsis

En el estreno de la serie, «Piloto», un prisionero («Aaron Wallace») se recibe de abogado y litiga los casos de otros reclusos mientras lucha por revertir su propia condena injusta. La pelea de Aaron y su relación complicada con una alcaidesa progresista, Safiya Masry (Indira Varma), explorarán las fallas del sistema penal y legal e inspirarán mostrando cómo una persona puede marcar la diferencia cuando lucha por la verdad.

Ficha técnica

Video trailer de la película

Enlaces de descarga

Rip de Bluray

Descargar For Life (2020) Temporada 1 WEB-DL 1080p Latino




Aportes de DPeliculasHDmega la pass es:dpeliculashdmega.org Aportes de CinemaniaHD la pass es:cinemaniahdd.com
Guardado en : Drama , Series

Películas relacionadas

  • El discurso del Rey (2010) 1080p Latino

    El discurso del Rey (2010) 1080p Latino

    2010
    El discurso del Rey (2010) 1080p Latino

    1h 58m 2010

    Descargar El discurso del Rey (2010) 1080p Latino. El duque de York se convirtió en rey de Gran Bretaña...

    Director: Tom Hooper

    Género: Drama

    Actores: Tony Earnshaw

  • El discurso del Rey (2010) Full HD 1080p Latino

    El discurso del Rey (2010) Full HD 1080p Latino

    2010
    El discurso del Rey (2010) Full HD 1080p Latino

    1h 58m 2010

    Descargar El discurso del Rey (2010) Full HD 1080p Latino. El duque de York se convirtió en rey de Gran...

    Director: Tom Hooper

    Género: Drama

    Actores: Tony Earnshaw

  • El discurso del Rey (2010) REMUX 1080p Latino

    El discurso del Rey (2010) REMUX 1080p Latino

    2010
    El discurso del Rey (2010) REMUX 1080p Latino

    1h 58m 2010

    Descargar El discurso del Rey (2010) REMUX 1080p Latino. El duque de York se convirtió en rey de Gran...

    Director: Tom Hooper

    Género: Drama

    Actores: Tony Earnshaw

  • 8 Mile (2002) REMUX 4K HDR Latino – CMHDD

    8 Mile (2002) REMUX 4K HDR Latino – CMHDD

    2002
    8 Mile (2002) REMUX 4K HDR Latino – CMHDD

    1h 50m 2002

    Detroit, 1995. La promesa de potencia industrial se ha transformado en un hervidero de conflictos económicos...

    Director: Michael J. Moore

    Género: Drama

    Actores: Xzibit

descargar For Life (2020) Temporada 1 WEB-DL 1080p Latino WEBDL 1080p gratis, For Life (2020) Temporada 1 WEB-DL 1080p Latino WEBDL mega 1 link, For Life (2020) Temporada 1 WEB-DL 1080p Latino WEBDL serie completa, descargar For Life (2020) Temporada 1 WEB-DL 1080p Latino WEBDL gratis en mega.

For Life (2020) Temporada 1 WEB-DL 1080p Latino pelicula full hd, For Life (2020) Temporada 1 WEB-DL 1080p Latino mega latino, For Life (2020) Temporada 1 WEB-DL 1080p Latino 4k latino, For Life (2020) Temporada 1 WEB-DL 1080p Latino pelicula completa, For Life (2020) Temporada 1 WEB-DL 1080p Latino descargar gratis, descargar For Life (2020) Temporada 1 WEB-DL 1080p Latino pelicula latino, For Life (2020) Temporada 1 WEB-DL 1080p Latino 1 link mega, For Life (2020) Temporada 1 WEB-DL 1080p Latino 1 link google drive, For Life (2020) Temporada 1 WEB-DL 1080p Latino hd 1080p latino.
Comentarios 0