×

¿Problemas para descargar con Mozilla, EDGE? Deshabilita la opción "Abrir vinculos en una pestaña nueva" tal como lo muestra ésta imagen.

Flora & Ulysses (2021) Web-DL 1080p Latino

451 vistas

Información de Flora & Ulysses (2021) Web-DL 1080p Latino

Datos de la película

  • Calidad: WEBDL
  • Audio: Se especifica abajo de la Sinopsis
  • Subtitulos: Español Latino SRT - Ingles SRT
  • Resolución: 1920x1080p
  • Formato: MKV
  • Codec: H.264
  • Encoder: CinefiloCool
  • Mediainfo: Clic para Mostrar Datos Ver
  • Flora y Ulises (2021) D+ Web-DL 1080p Latino-CMHDD.mkv
    Format                      : Matroska
    Format version              : Version 4
    File size                   : 5.42 GiB
    Duration                    : 1 h 30 min
    Overall bit rate mode       : Variable
    Overall bit rate            : 8 561 kb/s
    Movie name                  : Flora & Ulysses (2021) CinemaniaHDD.Net
    Encoded date                : UTC 2021-02-19 09:33:08
    Writing application         : mkvmerge v51.0.0 ('I Wish') 64-bit
    Writing library             : libebml v1.4.0 + libmatroska v1.6.2
    Attachments                 : CINEMANIAHD.png

    Video
    ID                          : 1
    Format                      : AVC
    Format/Info                 : Advanced Video Codec
    Format profile              : High@L4
    Format settings             : CABAC / 4 Ref Frames
    Format settings, CABAC      : Yes
    Format settings, Reference  : 4 frames
    Codec ID                    : V_MPEG4/ISO/AVC
    Duration                    : 1 h 30 min
    Bit rate mode               : Variable
    Bit rate                    : 7 150 kb/s
    Maximum bit rate            : 12.7 Mb/s
    Width                       : 1 920 pixels
    Height                      : 1 080 pixels
    Display aspect ratio        : 16:9
    Frame rate mode             : Constant
    Frame rate                  : 23.976 (24000/1001) FPS
    Color space                 : YUV
    Chroma subsampling          : 4:2:0
    Bit depth                   : 8 bits
    Scan type                   : Progressive
    Bits/(Pixel*Frame)          : 0.144
    Stream size                 : 4.53 GiB (84%)
    Title                       : WEB HD1080p [CinemaniaHDD]
    Default                     : Yes
    Forced                      : No
    Color range                 : Limited
    Color primaries             : BT.709
    Transfer characteristics    : BT.709
    Matrix coefficients         : BT.709

    Audio #1
    ID                          : 2
    Format                      : E-AC-3
    Format/Info                 : Enhanced AC-3
    Commercial name             : Dolby Digital Plus
    Codec ID                    : A_EAC3
    Duration                    : 1 h 30 min
    Bit rate mode               : Constant
    Bit rate                    : 256 kb/s
    Channel(s)                  : 6 channels
    Channel layout              : L R C LFE Ls Rs
    Sampling rate               : 48.0 kHz
    Frame rate                  : 31.250 FPS (1536 SPF)
    Compression mode            : Lossy
    Stream size                 : 166 MiB (3%)
    Title                       : Español Latino [CinemaniaHDD]
    Language                    : Spanish
    Service kind                : Complete Main
    Default                     : Yes
    Forced                      : No

    Audio #2
    ID                          : 3
    Format                      : E-AC-3 JOC
    Format/Info                 : Enhanced AC-3 with Joint Object Coding
    Commercial name             : Dolby Digital Plus with Dolby Atmos
    Codec ID                    : A_EAC3
    Duration                    : 1 h 30 min
    Bit rate mode               : Constant
    Bit rate                    : 768 kb/s
    Channel(s)                  : 6 channels
    Channel layout              : L R C LFE Ls Rs
    Sampling rate               : 48.0 kHz
    Frame rate                  : 31.250 FPS (1536 SPF)
    Compression mode            : Lossy
    Stream size                 : 498 MiB (9%)
    Title                       : Ingles [CinemaniaHDD]
    Language                    : English
    Service kind                : Complete Main
    Default                     : No
    Forced                      : No
    Complexity index            : 16
    Number of dynamic objects   : 15
    Bed channel count           : 1 channel
    Bed channel configuration   : LFE

    Audio #3
    ID                          : 4
    Format                      : AC-3
    Format/Info                 : Audio Coding 3
    Commercial name             : Dolby Digital
    Codec ID                    : A_AC3
    Duration                    : 1 h 30 min
    Bit rate mode               : Constant
    Bit rate                    : 384 kb/s
    Channel(s)                  : 6 channels
    Channel layout              : L R C LFE Ls Rs
    Sampling rate               : 48.0 kHz
    Frame rate                  : 31.250 FPS (1536 SPF)
    Compression mode            : Lossy
    Stream size                 : 249 MiB (4%)
    Title                       : Español Latino AC3[CinemaniaHDD]
    Language                    : Spanish
    Service kind                : Complete Main
    Default                     : No
    Forced                      : No

    Text #1
    ID                          : 5
    Format                      : UTF-8
    Codec ID                    : S_TEXT/UTF8
    Codec ID/Info               : UTF-8 Plain Text
    Duration                    : 1 h 22 min
    Bit rate                    : 1 b/s
    Count of elements           : 22
    Stream size                 : 672 Bytes (0%)
    Title                       : Forzados-SRT [CinemaniaHDD]
    Language                    : Spanish
    Default                     : Yes
    Forced                      : No

    Text #2
    ID                          : 6
    Format                      : UTF-8
    Codec ID                    : S_TEXT/UTF8
    Codec ID/Info               : UTF-8 Plain Text
    Duration                    : 1 h 30 min
    Bit rate                    : 57 b/s
    Count of elements           : 1264
    Stream size                 : 37.6 KiB (0%)
    Title                       : Español-SRT [CinemaniaHDD]
    Language                    : Spanish
    Default                     : No
    Forced                      : No

    Text #3
    ID                          : 7
    Format                      : UTF-8
    Codec ID                    : S_TEXT/UTF8
    Codec ID/Info               : UTF-8 Plain Text
    Duration                    : 1 h 24 min
    Bit rate                    : 75 b/s
    Count of elements           : 1558
    Stream size                 : 46.7 KiB (0%)
    Title                       : Ingles-SRT [CinemaniaHDD]
    Language                    : English
    Default                     : No
    Forced                      : No

  • Peso: 5.42 GiB

Sinopsis

Descargar Flora & Ulysses (2021) Web-DL 1080p Latino. “Flora y Ulises” es una adorable comedia de aventuras basada en el libro reconocido con el Newbery Award acerca de Flora, una ávida lectora de cómics que a sus 10 años se auto declara escéptica después de vivir la separación de sus padres. Flora rescata a una ardilla a la cual nombra Ulises y descubre, para su sorpresa, que Ulises posee poderes únicos de superhéroe que los llevan a una aventura llena de divertidas complicaciones que termina cambiando la vida y perspectiva de Flora para siempre.

Audio Español Latino EAC3 + AC3 5.1 D+ – Ingles EAC3 5.1 D+

Ficha técnica

Video trailer de la película

Enlaces de descarga

Rip de Bluray

Descargar Flora & Ulysses (2021) Web-DL 1080p Latino




Aportes de DPeliculasHDmega la pass es:dpeliculashdmega.org Aportes de CinemaniaHD la pass es:cinemaniahdd.com Aportes recientes:cinemaniahdd.net
Guardado en : Aventura , Comedia , Familia , Fantasía

Películas relacionadas

descargar Flora & Ulysses (2021) Web-DL 1080p Latino WEBDL 1080p gratis, Flora & Ulysses (2021) Web-DL 1080p Latino WEBDL mega 1 link, Flora & Ulysses (2021) Web-DL 1080p Latino WEBDL pelicula completa, descargar Flora & Ulysses (2021) Web-DL 1080p Latino WEBDL gratis en mega.

Flora & Ulysses (2021) Web-DL 1080p Latino pelicula full hd, Flora & Ulysses (2021) Web-DL 1080p Latino mega latino, Flora & Ulysses (2021) Web-DL 1080p Latino 4k latino, Flora & Ulysses (2021) Web-DL 1080p Latino pelicula completa, Flora & Ulysses (2021) Web-DL 1080p Latino descargar gratis, descargar Flora & Ulysses (2021) Web-DL 1080p Latino pelicula latino, Flora & Ulysses (2021) Web-DL 1080p Latino 1 link mega, Flora & Ulysses (2021) Web-DL 1080p Latino 1 link google drive, Flora & Ulysses (2021) Web-DL 1080p Latino hd 1080p latino.
Comentarios 0