×

¿Problemas para descargar con Mozilla, EDGE? Deshabilita la opción "Abrir vinculos en una pestaña nueva" tal como lo muestra ésta imagen.

El Vuelo (2012) REMUX 1080p Latino

477 vistas

Información de El Vuelo (2012) REMUX 1080p Latino

Datos de la película

  • Calidad: Full 1080p
  • Audio: Español Latino AC3 5.1 BLURAY - Ingles DTS 5.1 BLURAY
  • Subtitulos: Español Latino PGS - Ingles PGS
  • Resolución: 1920x1080p
  • Formato: MKV
  • Codec: H.264
  • Encoder: CinefiloCool
  • Mediainfo: Clic para Mostrar Datos Ver
  • El Vuelo (2012) REMUX 1080p Latino-CMHDD.mkv
    Format                      : Matroska
    Format version              : Version 4
    File size                   : 28.3 GiB
    Duration                    : 2 h 19 min
    Overall bit rate mode       : Variable
    Overall bit rate            : 29.1 Mb/s
    Movie name                  : Flight (2012) CinemaniaHDD.Net
    Encoded date                : UTC 2020-08-07 00:02:58
    Writing application         : mkvmerge v46.0.0 ('No Deeper Escape') 64-bit
    Writing library             : libebml v1.3.10 + libmatroska v1.5.2
    Attachments                 : CINEMANIAHD.png

    Video
    ID                          : 1
    Format                      : AVC
    Format/Info                 : Advanced Video Codec
    Format profile              : High@L4.1
    Format settings             : CABAC / 4 Ref Frames
    Format settings, CABAC      : Yes
    Format settings, Reference  : 4 frames
    Codec ID                    : V_MPEG4/ISO/AVC
    Duration                    : 2 h 18 min
    Bit rate mode               : Variable
    Bit rate                    : 25.2 Mb/s
    Maximum bit rate            : 32.0 Mb/s
    Width                       : 1 920 pixels
    Height                      : 1 080 pixels
    Display aspect ratio        : 16:9
    Frame rate mode             : Constant
    Frame rate                  : 23.976 (24000/1001) FPS
    Color space                 : YUV
    Chroma subsampling          : 4:2:0
    Bit depth                   : 8 bits
    Scan type                   : Progressive
    Bits/(Pixel*Frame)          : 0.506
    Stream size                 : 24.4 GiB (86%)
    Title                       : REMUX 1080p [CinemaniaHDD]
    Default                     : Yes
    Forced                      : No

    Audio #1
    ID                          : 2
    Format                      : AC-3
    Format/Info                 : Audio Coding 3
    Commercial name             : Dolby Digital
    Codec ID                    : A_AC3
    Duration                    : 2 h 19 min
    Bit rate mode               : Constant
    Bit rate                    : 640 kb/s
    Channel(s)                  : 6 channels
    Channel layout              : L R C LFE Ls Rs
    Sampling rate               : 48.0 kHz
    Frame rate                  : 31.250 FPS (1536 SPF)
    Compression mode            : Lossy
    Delay relative to video     : 22 ms
    Stream size                 : 638 MiB (2%)
    Title                       : Español Latino [CinemaniaHDD]
    Language                    : Spanish
    Service kind                : Complete Main
    Default                     : Yes
    Forced                      : No

    Audio #2
    ID                          : 3
    Format                      : DTS XLL
    Format/Info                 : Digital Theater Systems
    Commercial name             : DTS-HD Master Audio
    Codec ID                    : A_DTS
    Duration                    : 2 h 18 min
    Bit rate mode               : Variable
    Bit rate                    : 3 382 kb/s
    Channel(s)                  : 6 channels
    Channel layout              : C L R Ls Rs LFE
    Sampling rate               : 48.0 kHz
    Frame rate                  : 93.750 FPS (512 SPF)
    Bit depth                   : 24 bits
    Compression mode            : Lossless
    Stream size                 : 3.27 GiB (12%)
    Title                       : Ingles [CinemaniaHDD]
    Language                    : English
    Default                     : No
    Forced                      : No

    Text #1
    ID                          : 4
    Format                      : PGS
    Muxing mode                 : zlib
    Codec ID                    : S_HDMV/PGS
    Codec ID/Info               : Picture based subtitle format used on BDs/HD-DVDs
    Duration                    : 2 h 9 min
    Bit rate                    : 142 b/s
    Count of elements           : 14
    Stream size                 : 135 KiB (0%)
    Title                       : Forzados-PGS [CinemaniaHDD]
    Language                    : Spanish
    Default                     : Yes
    Forced                      : No

    Text #2
    ID                          : 5
    Format                      : PGS
    Muxing mode                 : zlib
    Codec ID                    : S_HDMV/PGS
    Codec ID/Info               : Picture based subtitle format used on BDs/HD-DVDs
    Duration                    : 2 h 13 min
    Bit rate                    : 36.1 kb/s
    Count of elements           : 3258
    Stream size                 : 34.4 MiB (0%)
    Title                       : Español-PGS [CinemaniaHDD]
    Language                    : Spanish
    Default                     : No
    Forced                      : No

    Text #3
    ID                          : 6
    Format                      : PGS
    Muxing mode                 : zlib
    Codec ID                    : S_HDMV/PGS
    Codec ID/Info               : Picture based subtitle format used on BDs/HD-DVDs
    Duration                    : 2 h 10 min
    Bit rate                    : 44.9 kb/s
    Count of elements           : 4164
    Stream size                 : 42.0 MiB (0%)
    Title                       : Ingles-PGS [CinemaniaHDD]
    Language                    : English
    Default                     : No
    Forced                      : No

    Text #4
    ID                          : 7
    Format                      : UTF-8
    Codec ID                    : S_TEXT/UTF8
    Codec ID/Info               : UTF-8 Plain Text
    Duration                    : 2 h 13 min
    Bit rate                    : 0 b/s
    Count of elements           : 11
    Stream size                 : 255 Bytes (0%)
    Title                       : Forzados-SRT [CinemaniaHDD]
    Language                    : Spanish
    Default                     : No
    Forced                      : No

    Text #5
    ID                          : 8
    Format                      : UTF-8
    Codec ID                    : S_TEXT/UTF8
    Codec ID/Info               : UTF-8 Plain Text
    Duration                    : 2 h 13 min
    Bit rate                    : 59 b/s
    Count of elements           : 1629
    Stream size                 : 57.8 KiB (0%)
    Title                       : Español-SRT [CinemaniaHDD]
    Language                    : Spanish
    Default                     : No
    Forced                      : No

    Menu
    00:00:00.000                : en:00:00:00.000
    00:09:32.572                : en:00:09:32.572
    00:17:06.984                : en:00:17:06.984
    00:26:16.784                : en:00:26:16.784
    00:34:40.203                : en:00:34:40.203
    00:45:42.615                : en:00:45:42.615
    00:52:01.493                : en:00:52:01.493
    01:00:46.768                : en:01:00:46.768
    01:10:10.081                : en:01:10:10.081
    01:19:30.808                : en:01:19:30.808
    01:26:54.543                : en:01:26:54.543
    01:37:05.236                : en:01:37:05.236
    01:48:54.153                : en:01:48:54.153
    01:55:20.122                : en:01:55:20.122
    02:11:54.740                : en:02:11:54.740

  • Peso: 28.3 GiB

Sinopsis

Descargar El Vuelo (2012) REMUX 1080p Latino. Tras un aterrizaje de emergencia en medio del campo gracias al cual salvan la vida un centenar de pasajeros, el comandante Whip Whitaker (Denzel Washington), que pilotaba el avión, es considerado un héroe nacional. Sin embargo, cuando se pone en marcha la investigación para determinar las causas de la avería, se averigua que el capitán tenía exceso de alcohol en la sangre y que puede ir a la cárcel si se demuestra que pilotó el avión en estado de embriaguez.

Ficha técnica

Video trailer de la película

Enlaces de descarga

Rip de Bluray

Descargar El Vuelo (2012) REMUX 1080p Latino




Aportes de DPeliculasHDmega la pass es:dpeliculashdmega.org Aportes de CinemaniaHD la pass es:cinemaniahdd.com
Guardado en : Drama , Remux

Películas relacionadas

descargar El Vuelo (2012) REMUX 1080p Latino Full 1080p 1080p gratis, El Vuelo (2012) REMUX 1080p Latino Full 1080p mega 1 link, El Vuelo (2012) REMUX 1080p Latino Full 1080p pelicula completa, descargar El Vuelo (2012) REMUX 1080p Latino Full 1080p gratis en mega.

El Vuelo (2012) REMUX 1080p Latino pelicula full hd, El Vuelo (2012) REMUX 1080p Latino mega latino, El Vuelo (2012) REMUX 1080p Latino 4k latino, El Vuelo (2012) REMUX 1080p Latino pelicula completa, El Vuelo (2012) REMUX 1080p Latino descargar gratis, descargar El Vuelo (2012) REMUX 1080p Latino pelicula latino, El Vuelo (2012) REMUX 1080p Latino 1 link mega, El Vuelo (2012) REMUX 1080p Latino 1 link google drive, El Vuelo (2012) REMUX 1080p Latino hd 1080p latino.
Comentarios 1
  • ocpgaiden - 07 agosto, 2020

    Gracias por El vuelo remux, saludos