×

¿Problemas para descargar con Mozilla, EDGE? Deshabilita la opción "Abrir vinculos en una pestaña nueva" tal como lo muestra ésta imagen.

Flesh & Blood (2018) WEB-DL 1080p Latino

334 vistas

Información de Flesh & Blood (2018) WEB-DL 1080p Latino

Datos de la película

  • Calidad: WEBDL
  • Audio: Español Latino AC3 2.0 WEB-DL - Ingles AC3 5.1 WEB-DL
  • Subtitulos: Español Latino SRT - Ingles SRT
  • Resolución: 1920x1080
  • Formato: MKV
  • Codec: H.264
  • Encoder: cinemaniahdd
  • Mediainfo: Clic para Mostrar Datos Ver
  • Flesh & Blood (2018) WEB-DL 1080p Latino [CNMNHDD].mkv
    Format                      : Matroska
    Format version              : Version 4
    File size                   : 2.75 GiB
    Duration                    : 1 h 33 min
    Overall bit rate            : 4 211 kb/s
    Movie name                  : Flesh & Blood (2018) - CinemaniaHDD.Net
    Encoded date                : UTC 2020-10-30 03:33:37
    Writing application         : mkvmerge v51.0.0 ('I Wish') 64-bit
    Writing library             : libebml v1.4.0 + libmatroska v1.6.2

    Video
    ID                          : 1
    Format                      : AVC
    Format/Info                 : Advanced Video Codec
    Format profile              : High@L4
    Format settings             : CABAC / 4 Ref Frames
    Format settings, CABAC      : Yes
    Format settings, Reference  : 4 frames
    Codec ID                    : V_MPEG4/ISO/AVC
    Duration                    : 1 h 33 min
    Bit rate                    : 3 569 kb/s
    Width                       : 1 920 pixels
    Height                      : 1 080 pixels
    Display aspect ratio        : 16:9
    Frame rate mode             : Constant
    Frame rate                  : 23.976 (24000/1001) FPS
    Color space                 : YUV
    Chroma subsampling          : 4:2:0
    Bit depth                   : 8 bits
    Scan type                   : Progressive
    Bits/(Pixel*Frame)          : 0.072
    Stream size                 : 2.33 GiB (85%)
    Title                       : CinemaniaHDD
    Default                     : Yes
    Forced                      : No

    Audio #1
    ID                          : 2
    Format                      : AC-3
    Format/Info                 : Audio Coding 3
    Commercial name             : Dolby Digital
    Codec ID                    : A_AC3
    Duration                    : 1 h 33 min
    Bit rate mode               : Constant
    Bit rate                    : 256 kb/s
    Channel(s)                  : 2 channels
    Channel layout              : L R
    Sampling rate               : 48.0 kHz
    Frame rate                  : 31.250 FPS (1536 SPF)
    Compression mode            : Lossy
    Stream size                 : 171 MiB (6%)
    Title                       : Español latino [CinemaniaHDD]
    Language                    : Spanish
    Service kind                : Complete Main
    Default                     : Yes
    Forced                      : No

    Audio #2
    ID                          : 3
    Format                      : AC-3
    Format/Info                 : Audio Coding 3
    Commercial name             : Dolby Digital
    Codec ID                    : A_AC3
    Duration                    : 1 h 33 min
    Bit rate mode               : Constant
    Bit rate                    : 384 kb/s
    Channel(s)                  : 6 channels
    Channel layout              : L R C LFE Ls Rs
    Sampling rate               : 48.0 kHz
    Frame rate                  : 31.250 FPS (1536 SPF)
    Compression mode            : Lossy
    Stream size                 : 256 MiB (9%)
    Title                       : Inglés [CinemaniaHDD]
    Language                    : English
    Service kind                : Complete Main
    Default                     : No
    Forced                      : No

    Text #1
    ID                          : 4
    Format                      : UTF-8
    Codec ID                    : S_TEXT/UTF8
    Codec ID/Info               : UTF-8 Plain Text
    Duration                    : 1 h 31 min
    Bit rate                    : 60 b/s
    Count of elements           : 1399
    Stream size                 : 40.4 KiB (0%)
    Title                       : Español latino [CC] [CinemaniaHDD]
    Language                    : Spanish
    Default                     : No
    Forced                      : No

    Text #2
    ID                          : 5
    Format                      : UTF-8
    Codec ID                    : S_TEXT/UTF8
    Codec ID/Info               : UTF-8 Plain Text
    Duration                    : 1 h 31 min
    Bit rate                    : 59 b/s
    Count of elements           : 1352
    Stream size                 : 40.1 KiB (0%)
    Title                       : Inglés [CC] [CinemaniaHDD]
    Language                    : English
    Default                     : No
    Forced                      : No

     

  • Peso: 2.75 GiB

Sinopsis

Kimberly, una adolescente con agorafobia, no ha salido de casa desde el asesinato sin resolver de su madre. El día antes de Acción de Gracias Kimberly empieza a sospechar que está en peligro.

Ficha técnica

Video trailer de la película

Enlaces de descarga

Rip de Bluray

Descargar Flesh & Blood (2018) WEB-DL 1080p Latino




Aportes de DPeliculasHDmega la pass es:dpeliculashdmega.org Aportes de CinemaniaHD la pass es:cinemaniahdd.com
Guardado en : Suspenso , Terror

Películas relacionadas

  • Transfusion (2023) WEB-DL 4K UHD HDR Latino

    Transfusion (2023) WEB-DL 4K UHD HDR Latino

    2023
    Transfusion (2023) WEB-DL 4K UHD HDR Latino

    1h 45m 2023

    Descargar Transfusion (2023) WEB-DL 4K UHD HDR Latino. Un antiguo agente de las Fuerzas Especiales se...

    Director: Matt Nable

    Género: 4K HDR

    Actores: Trystan Go

  • Transfusion (2023) WEB-DL 1080p Latino

    Transfusion (2023) WEB-DL 1080p Latino

    2023
    Transfusion (2023) WEB-DL 1080p Latino

    1h 45m 2023

    Descargar Transfusion (2023) WEB-DL 1080p Latino. Un antiguo agente de las Fuerzas Especiales se ve empujado...

    Director: Matt Nable

    Género: Crimen

    Actores: Trystan Go

  • Asústame (2020) HD 1080p Latino

    Asústame (2020) HD 1080p Latino

    2020
    Asústame (2020) HD 1080p Latino

    1h 44m 2020

    Descargar Asústame (2020) HD 1080p Latino. Durante un corte de energía, dos extraños cuentan historias...

    Director: Josh Ruben

    Género: Comedia

    Actores: Rebecca Drysdale

  • Asústame (2020) PLACEBO Full HD 1080p Latino

    Asústame (2020) PLACEBO Full HD 1080p Latino

    2020
    Asústame (2020) PLACEBO Full HD 1080p Latino

    1h 44m 2020

    Descargar Asústame (2020) PLACEBO Full HD 1080p Latino. Durante un corte de energía, dos extraños...

    Director: Josh Ruben

    Género: Comedia

    Actores: Rebecca Drysdale

descargar Flesh & Blood (2018) WEB-DL 1080p Latino WEBDL 1080p gratis, Flesh & Blood (2018) WEB-DL 1080p Latino WEBDL mega 1 link, Flesh & Blood (2018) WEB-DL 1080p Latino WEBDL pelicula completa, descargar Flesh & Blood (2018) WEB-DL 1080p Latino WEBDL gratis en mega.

Flesh & Blood (2018) WEB-DL 1080p Latino pelicula full hd, Flesh & Blood (2018) WEB-DL 1080p Latino mega latino, Flesh & Blood (2018) WEB-DL 1080p Latino 4k latino, Flesh & Blood (2018) WEB-DL 1080p Latino pelicula completa, Flesh & Blood (2018) WEB-DL 1080p Latino descargar gratis, descargar Flesh & Blood (2018) WEB-DL 1080p Latino pelicula latino, Flesh & Blood (2018) WEB-DL 1080p Latino 1 link mega, Flesh & Blood (2018) WEB-DL 1080p Latino 1 link google drive, Flesh & Blood (2018) WEB-DL 1080p Latino hd 1080p latino.
Comentarios 0