×

¿Problemas para descargar con Mozilla, EDGE? Deshabilita la opción "Abrir vinculos en una pestaña nueva" tal como lo muestra ésta imagen.

Five Nights at Freddy’s (2023) REMUX 4K HDR Latino – CMHDD

147 vistas

Información de Five Nights at Freddy’s (2023) REMUX 4K HDR Latino – CMHDD

Datos de la película

  • Calidad: 4K HDR
  • Audio: Español Latino AC3 5.1 BLURAY - Ingles AC3 5.1 BLURAY
  • Subtitulos: Español Latino PGS
  • Resolución: 3840x2160p
  • Formato:
  • Codec: H.264
  • Encoder: Dracarys
  • Mediainfo: Clic para Mostrar Datos Ver
  • Format                      : Matroska
    Format version              : Version 4
    File size                   : 48.7 GiB
    Duration                    : 1 h 49 min
    Overall bit rate mode       : Variable
    Overall bit rate            : 63.7 Mb/s
    Movie name                  : Five Nights at Freddy's (2023) REMUX 4K HDR Latino - CMHDD
    Encoded date                : UTC 2023-12-09 15:16:39
    Writing application         : mkvmerge v47.0.0 ('Black Flag') 64-bit
    Writing library             : libebml v1.3.10 + libmatroska v1.5.2

    Video
    ID                          : 1
    Format                      : HEVC
    Format/Info                 : High Efficiency Video Coding
    Format profile              : Main 10@L5.1@High
    HDR format                  : SMPTE ST 2086, HDR10 compatible
    Codec ID                    : V_MPEGH/ISO/HEVC
    Duration                    : 1 h 49 min
    Bit rate                    : 58.9 Mb/s
    Width                       : 3 840 pixels
    Height                      : 2 160 pixels
    Display aspect ratio        : 16:9
    Frame rate mode             : Constant
    Frame rate                  : 23.976 (24000/1001) FPS
    Color space                 : YUV
    Chroma subsampling          : 4:2:0 (Type 2)
    Bit depth                   : 10 bits
    Bits/(Pixel*Frame)          : 0.296
    Stream size                 : 45.0 GiB (92%)
    Writing library             : ATEME Titan File 3.9.12 (4.9.12.4)      
    Language                    : English
    Default                     : Yes
    Forced                      : No
    Color range                 : Limited
    Color primaries             : BT.2020
    Transfer characteristics    : PQ
    Matrix coefficients         : BT.2020 non-constant
    Mastering display color pri : Display P3
    Mastering display luminance : min: 0.0050 cd/m2, max: 1000 cd/m2
    Maximum Content Light Level : 571 cd/m2
    Maximum Frame-Average Light : 32 cd/m2

    Audio #1
    ID                          : 2
    Format                      : MLP FBA 16-ch
    Format/Info                 : Meridian Lossless Packing FBA with 16-channel presentation
    Commercial name             : Dolby TrueHD with Dolby Atmos
    Codec ID                    : A_TRUEHD
    Duration                    : 1 h 49 min
    Bit rate mode               : Variable
    Bit rate                    : 2 851 kb/s
    Maximum bit rate            : 5 262 kb/s
    Channel(s)                  : 8 channels
    Channel layout              : L R C LFE Ls Rs Lb Rb
    Sampling rate               : 48.0 kHz
    Frame rate                  : 1 200.000 FPS (40 SPF)
    Compression mode            : Lossless
    Stream size                 : 2.18 GiB (4%)
    Language                    : English
    Default                     : No
    Forced                      : No
    Number of dynamic objects   : 11
    Bed channel count           : 1 channel
    Bed channel configuration   : LFE

    Audio #2
    ID                          : 3
    Format                      : AC-3
    Format/Info                 : Audio Coding 3
    Commercial name             : Dolby Digital
    Format settings             : Dolby Surround EX
    Codec ID                    : A_AC3
    Duration                    : 1 h 49 min
    Bit rate mode               : Constant
    Bit rate                    : 640 kb/s
    Channel(s)                  : 6 channels
    Channel layout              : L R C LFE Ls Rs
    Sampling rate               : 48.0 kHz
    Frame rate                  : 31.250 FPS (1536 SPF)
    Compression mode            : Lossy
    Stream size                 : 501 MiB (1%)
    Language                    : English
    Service kind                : Complete Main
    Default                     : No
    Forced                      : No

    Audio #3
    ID                          : 4
    Format                      : E-AC-3
    Format/Info                 : Enhanced AC-3
    Commercial name             : Dolby Digital Plus
    Format profile              : Blu-ray Disc
    Format settings             : Dolby Surround EX
    Codec ID                    : A_EAC3
    Duration                    : 1 h 49 min
    Bit rate mode               : Constant
    Bit rate                    : 768 kb/s
    Channel(s)                  : 8 channels
    Channel layout              : L R C LFE Ls Rs Lb Rb
    Sampling rate               : 48.0 kHz
    Frame rate                  : 31.250 FPS (1536 SPF)
    Compression mode            : Lossy
    Stream size                 : 601 MiB (1%)
    Language                    : Spanish
    Service kind                : Complete Main
    Default                     : Yes
    Forced                      : No

    Audio #4
    ID                          : 5
    Format                      : AC-3
    Format/Info                 : Audio Coding 3
    Commercial name             : Dolby Digital
    Format settings             : Dolby Surround EX
    Codec ID                    : A_AC3
    Duration                    : 1 h 49 min
    Bit rate mode               : Constant
    Bit rate                    : 448 kb/s
    Channel(s)                  : 6 channels
    Channel layout              : L R C LFE Ls Rs
    Sampling rate               : 48.0 kHz
    Frame rate                  : 31.250 FPS (1536 SPF)
    Compression mode            : Lossy
    Stream size                 : 351 MiB (1%)
    Language                    : Spanish
    Service kind                : Complete Main
    Default                     : No
    Forced                      : Yes

    Text #1
    ID                          : 6
    Format                      : UTF-8
    Codec ID                    : S_TEXT/UTF8
    Codec ID/Info               : UTF-8 Plain Text
    Duration                    : 1 h 43 min
    Bit rate                    : 0 b/s
    Frame rate                  : 0.005 FPS
    Count of elements           : 33
    Stream size                 : 612 Bytes (0%)
    Language                    : Spanish
    Default                     : Yes
    Forced                      : Yes

    Text #2
    ID                          : 7
    Format                      : PGS
    Muxing mode                 : zlib
    Codec ID                    : S_HDMV/PGS
    Codec ID/Info               : Picture based subtitle format used on BDs/HD-DVDs
    Duration                    : 1 h 47 min
    Bit rate                    : 22.0 kb/s
    Frame rate                  : 0.352 FPS
    Count of elements           : 2270
    Stream size                 : 16.9 MiB (0%)
    Language                    : Spanish
    Default                     : No
    Forced                      : No

    Text #3
    ID                          : 8
    Format                      : PGS
    Muxing mode                 : zlib
    Codec ID                    : S_HDMV/PGS
    Codec ID/Info               : Picture based subtitle format used on BDs/HD-DVDs
    Duration                    : 1 h 47 min
    Bit rate                    : 690 b/s
    Frame rate                  : 0.011 FPS
    Count of elements           : 70
    Stream size                 : 544 KiB (0%)
    Language                    : Spanish
    Default                     : No
    Forced                      : No

    Menu
    00:00:00.000                : en:Chapter 01
    00:05:02.719                : en:Chapter 02
    00:07:52.764                : en:Chapter 03
    00:11:14.966                : en:Chapter 04
    00:17:57.910                : en:Chapter 05
    00:21:17.193                : en:Chapter 06
    00:27:17.261                : en:Chapter 07
    00:31:17.793                : en:Chapter 08
    00:38:38.691                : en:Chapter 09
    00:46:59.316                : en:Chapter 10
    00:53:22.449                : en:Chapter 11
    01:00:53.483                : en:Chapter 12
    01:04:40.585                : en:Chapter 13
    01:11:58.272                : en:Chapter 14
    01:13:58.225                : en:Chapter 15
    01:19:55.749                : en:Chapter 16
    01:27:58.899                : en:Chapter 17
    01:33:19.260                : en:Chapter 18
    01:40:57.927                : en:Chapter 19
    01:44:15.124                : en:Chapter 20

     

  • Peso: 48.7 GiB

Sinopsis

Un guardia de seguridad con problemas comienza a trabajar en Freddy Fazbear’s Pizza. Mientras pasa su primera noche en el trabajo, se da cuenta de que el turno de noche en Freddy’s no será tan fácil de superar.

Ficha técnica

Video trailer de la película

Enlaces de descarga

Rip de Bluray

Descargar Five Nights at Freddy’s (2023) REMUX 4K HDR Latino – CMHDD




Aportes de DPeliculasHDmega la pass es:dpeliculashdmega.org Aportes de CinemaniaHD la pass es:cinemaniahdd.com Aportes recientes:cinemaniahdd.net
Guardado en : Misterio , Terror

Películas relacionadas

  • Vanished Into the Night (2024) NF WEB-DL 1080p Latino

    Vanished Into the Night (2024) NF WEB-DL 1080p Latino

    2024
    Vanished Into the Night (2024) NF WEB-DL 1080p Latino

    1h 33m 2024

    Descargar Vanished Into the Night (2024) NF WEB-DL 1080p Latino. Un padre inmerso en un divorcio problemático...

    Director: Renato De Maria

    Género: Drama

    Actores: Riccardo Scamarcio

  • Inmaculada (2024) HD 1080p Latino

    Inmaculada (2024) HD 1080p Latino

    2024
    Inmaculada (2024) HD 1080p Latino

    1h 29m 2024

    Descargar Inmaculada (2024) HD 1080p Latino. Cecilia, una mujer de fe devota, recibe una calurosa bienvenida...

    Director: Valentina Scuro

    Género: HD 1080p

    Actores: Viviane Florentine Nicolai

  • Inmaculada (2024) PLACEBO Full HD 1080p Latino

    Inmaculada (2024) PLACEBO Full HD 1080p Latino

    2024
    Inmaculada (2024) PLACEBO Full HD 1080p Latino

    1h 29m 2024

    Descargar Inmaculada (2024) PLACEBO Full HD 1080p Latino. Cecilia, una mujer de fe devota, recibe una...

    Director: Valentina Scuro

    Género: FULL 1080p Plateadas

    Actores: Viviane Florentine Nicolai

  • Inmaculada (2024) REMUX 1080p Latino

    Inmaculada (2024) REMUX 1080p Latino

    2024
    Inmaculada (2024) REMUX 1080p Latino

    1h 29m 2024

    Descargar Inmaculada (2024) REMUX 1080p Latino. Cecilia, una mujer de fe devota, recibe una calurosa...

    Director: Valentina Scuro

    Género: Misterio

    Actores: Viviane Florentine Nicolai

  • Immaculate (2024) AMZN WEB-DL 1080p Latino

    Immaculate (2024) AMZN WEB-DL 1080p Latino

    2024
    Immaculate (2024) AMZN WEB-DL 1080p Latino

    1h 29m 2024

    Cecilia, una mujer de fe devota, recibe una calurosa bienvenida en la perfecta campiña italiana, donde...

    Director: Valentina Scuro

    Género: Misterio

    Actores: Viviane Florentine Nicolai

descargar Five Nights at Freddy’s (2023) REMUX 4K HDR Latino – CMHDD 4K HDR 1080p gratis, Five Nights at Freddy’s (2023) REMUX 4K HDR Latino – CMHDD 4K HDR mega 1 link, Five Nights at Freddy’s (2023) REMUX 4K HDR Latino – CMHDD 4K HDR pelicula completa, descargar Five Nights at Freddy’s (2023) REMUX 4K HDR Latino – CMHDD 4K HDR gratis en mega.

Five Nights at Freddy’s (2023) REMUX 4K HDR Latino – CMHDD pelicula full hd, Five Nights at Freddy’s (2023) REMUX 4K HDR Latino – CMHDD mega latino, Five Nights at Freddy’s (2023) REMUX 4K HDR Latino – CMHDD 4k latino, Five Nights at Freddy’s (2023) REMUX 4K HDR Latino – CMHDD pelicula completa, Five Nights at Freddy’s (2023) REMUX 4K HDR Latino – CMHDD descargar gratis, descargar Five Nights at Freddy’s (2023) REMUX 4K HDR Latino – CMHDD pelicula latino, Five Nights at Freddy’s (2023) REMUX 4K HDR Latino – CMHDD 1 link mega, Five Nights at Freddy’s (2023) REMUX 4K HDR Latino – CMHDD 1 link google drive, Five Nights at Freddy’s (2023) REMUX 4K HDR Latino – CMHDD hd 1080p latino.
Comentarios 0