×

¿Problemas para descargar con Mozilla, EDGE? Deshabilita la opción "Abrir vinculos en una pestaña nueva" tal como lo muestra ésta imagen.

Five Nights at Freddy’s (2023) HD 1080p Latino

112 vistas

Información de Five Nights at Freddy’s (2023) HD 1080p Latino

Datos de la película

  • Calidad: 1080p
  • Audio: Español Latino AC3 5.1 BLURAY - Ingles AC3 5.1 BLURAY
  • Subtitulos: Español Latino SRT- FORZADOS SRT
  • Resolución: 1920x960p
  • Formato: MKV
  • Codec: H.264
  • Encoder: Melkor
  • Mediainfo: Clic para Mostrar Datos Ver
  • Five Nights at Freddys (2023) HD 1080p Latino.mkv
    Format                      : Matroska
    Format version              : Version 4
    File size                   : 3.34 GiB
    Duration                    : 1 h 49 min
    Overall bit rate            : 4 369 kb/s
    Movie name                  : Five Nights at Freddy's (2023) CinemaniaHDD.Net
    Encoded date                : UTC 2023-12-11 21:09:05
    Writing application         : mkvmerge v56.1.0 ('My Friend') 64-bit
    Writing library             : libebml v1.4.2 + libmatroska v1.6.4
    Attachments                 : CINEMANIAHD.png
    Site                        : CinemaniaHDD.Net
    Uploader                    : Melkor

    Video
    ID                          : 1
    Format                      : AVC
    Format/Info                 : Advanced Video Codec
    Format profile              : High@L4.1
    Format settings             : CABAC / 4 Ref Frames
    Format settings, CABAC      : Yes
    Format settings, Reference  : 4 frames
    Codec ID                    : V_MPEG4/ISO/AVC
    Duration                    : 1 h 49 min
    Bit rate                    : 3 500 kb/s
    Width                       : 1 920 pixels
    Height                      : 960 pixels
    Display aspect ratio        : 2.000
    Frame rate mode             : Constant
    Frame rate                  : 23.976 (24000/1001) FPS
    Color space                 : YUV
    Chroma subsampling          : 4:2:0
    Bit depth                   : 8 bits
    Scan type                   : Progressive
    Bits/(Pixel*Frame)          : 0.079
    Stream size                 : 2.65 GiB (79%)
    Title                       : HD1080p [CinemaniaHDD]
    Writing library             : x264 core 163 r3059 b684ebe0
    Encoding settings           : cabac=1 / ref=4 / deblock=1:-1:-1 / analyse=0x3:0x133 / me=umh / subme=9 / psy=1 / psy_rd=1.00:0.15 / mixed_ref=1 / me_range=16 / chroma_me=1 / trellis=2 / 8x8dct=1 / cqm=0 / deadzone=21,11 / fast_pskip=1 / chroma_qp_offset=-3 / threads=24 / lookahead_threads=2 / sliced_threads=0 / nr=0 / decimate=1 / interlaced=0 / bluray_compat=0 / constrained_intra=0 / bframes=3 / b_pyramid=2 / b_adapt=2 / b_bias=0 / direct=3 / weightb=1 / open_gop=0 / weightp=2 / keyint=240 / keyint_min=24 / scenecut=40 / intra_refresh=0 / rc_lookahead=60 / rc=abr / mbtree=1 / bitrate=3500 / ratetol=1.0 / qcomp=0.60 / qpmin=0 / qpmax=69 / qpstep=4 / vbv_maxrate=62500 / vbv_bufsize=78125 / nal_hrd=none / filler=0 / ip_ratio=1.40 / aq=1:1.00
    Default                     : Yes
    Forced                      : Yes
    Color range                 : Limited
    Color primaries             : BT.709
    Transfer characteristics    : BT.709
    Matrix coefficients         : BT.709

    Audio #1
    ID                          : 2
    Format                      : AC-3
    Format/Info                 : Audio Coding 3
    Commercial name             : Dolby Digital
    Format settings             : Dolby Surround EX
    Codec ID                    : A_AC3
    Duration                    : 1 h 49 min
    Bit rate mode               : Constant
    Bit rate                    : 448 kb/s
    Channel(s)                  : 6 channels
    Channel layout              : L R C LFE Ls Rs
    Sampling rate               : 48.0 kHz
    Frame rate                  : 31.250 FPS (1536 SPF)
    Compression mode            : Lossy
    Stream size                 : 351 MiB (10%)
    Title                       : Español Latino AC3 [CinemaniaHDD]
    Language                    : Spanish
    Service kind                : Complete Main
    Default                     : Yes
    Forced                      : Yes

    Audio #2
    ID                          : 3
    Format                      : AC-3
    Format/Info                 : Audio Coding 3
    Commercial name             : Dolby Digital
    Codec ID                    : A_AC3
    Duration                    : 1 h 49 min
    Bit rate mode               : Constant
    Bit rate                    : 448 kb/s
    Channel(s)                  : 6 channels
    Channel layout              : L R C LFE Ls Rs
    Sampling rate               : 48.0 kHz
    Frame rate                  : 31.250 FPS (1536 SPF)
    Compression mode            : Lossy
    Stream size                 : 351 MiB (10%)
    Title                       : Ingles AC3 [CinemaniaHDD]
    Language                    : English
    Service kind                : Complete Main
    Default                     : No
    Forced                      : No

    Text #1
    ID                          : 4
    Format                      : UTF-8
    Codec ID                    : S_TEXT/UTF8
    Codec ID/Info               : UTF-8 Plain Text
    Duration                    : 1 h 43 min
    Bit rate                    : 0 b/s
    Count of elements           : 33
    Stream size                 : 613 Bytes (0%)
    Title                       : Forzados-SRT [CinemaniaHDD]
    Language                    : Spanish
    Default                     : Yes
    Forced                      : Yes

    Text #2
    ID                          : 5
    Format                      : UTF-8
    Codec ID                    : S_TEXT/UTF8
    Codec ID/Info               : UTF-8 Plain Text
    Duration                    : 1 h 43 min
    Bit rate                    : 36 b/s
    Count of elements           : 1087
    Stream size                 : 28.0 KiB (0%)
    Title                       : Español-SRT [CinemaniaHDD]
    Language                    : Spanish
    Default                     : No
    Forced                      : No

    Menu
    00:00:00.000                : Chapter 01
    00:05:02.719                : Chapter 02
    00:07:52.764                : Chapter 03
    00:11:14.966                : Chapter 04
    00:17:57.910                : Chapter 05
    00:21:17.193                : Chapter 06
    00:27:17.261                : Chapter 07
    00:31:17.793                : Chapter 08
    00:38:38.691                : Chapter 09
    00:46:59.316                : Chapter 10
    00:53:22.449                : Chapter 11
    01:00:53.483                : Chapter 12
    01:04:40.585                : Chapter 13
    01:11:58.272                : Chapter 14
    01:13:58.225                : Chapter 15
    01:19:55.749                : Chapter 16
    01:27:58.899                : Chapter 17
    01:33:19.260                : Chapter 18
    01:40:57.927                : Chapter 19
    01:44:15.124                : Chapter 20

  • Peso: 3.34 GiB

Sinopsis

Desargar Five Nights at Freddy’s (2023) HD 1080p Latino. Un guardia de seguridad con problemas comienza a trabajar en Freddy Fazbear’s Pizza. Mientras pasa su primera noche en el trabajo, se da cuenta de que el turno de noche en Freddy’s no será tan fácil de superar.

Ficha técnica

Video trailer de la película

Enlaces de descarga

Rip de Bluray

Descargar Five Nights at Freddy’s (2023) HD 1080p Latino




Aportes de DPeliculasHDmega la pass es:dpeliculashdmega.org Aportes de CinemaniaHD la pass es:cinemaniahdd.com Aportes recientes:cinemaniahdd.net
Guardado en : HD 1080p , Misterio , Terror

Películas relacionadas

descargar Five Nights at Freddy’s (2023) HD 1080p Latino 1080p 1080p gratis, Five Nights at Freddy’s (2023) HD 1080p Latino 1080p mega 1 link, Five Nights at Freddy’s (2023) HD 1080p Latino 1080p pelicula completa, descargar Five Nights at Freddy’s (2023) HD 1080p Latino 1080p gratis en mega.

Five Nights at Freddy’s (2023) HD 1080p Latino pelicula full hd, Five Nights at Freddy’s (2023) HD 1080p Latino mega latino, Five Nights at Freddy’s (2023) HD 1080p Latino 4k latino, Five Nights at Freddy’s (2023) HD 1080p Latino pelicula completa, Five Nights at Freddy’s (2023) HD 1080p Latino descargar gratis, descargar Five Nights at Freddy’s (2023) HD 1080p Latino pelicula latino, Five Nights at Freddy’s (2023) HD 1080p Latino 1 link mega, Five Nights at Freddy’s (2023) HD 1080p Latino 1 link google drive, Five Nights at Freddy’s (2023) HD 1080p Latino hd 1080p latino.
Comentarios 0