×

¿Problemas para descargar con Mozilla, EDGE? Deshabilita la opción "Abrir vinculos en una pestaña nueva" tal como lo muestra ésta imagen.

Five Blind Dates (2024) AMZN WEB-DL 1080p Latino

58 vistas

Información de Five Blind Dates (2024) AMZN WEB-DL 1080p Latino

Datos de la película

  • Calidad: 1080p
  • Audio: Español Latino AC3 5.1 WEB-DL - Ingles AC3 5.1 WEB-DL
  • Subtitulos: Español Latino SRT- FORZADOS SRT
  • Resolución: 1920x1080
  • Formato: MKV
  • Codec: H.264
  • Encoder: cinemaniahdd
  • Mediainfo: Clic para Mostrar Datos Ver
  • Five Blind Dates (2024) AMZN WEB-DL 1080p Latino [CNMNHDD].mkv
    Format                      : Matroska
    Format version              : Version 4
    File size                   : 6.37 GiB
    Duration                    : 1 h 24 min
    Overall bit rate            : 10.8 Mb/s
    Movie name                  : Five Blind Dates (2024) [1080p] - CinemaniaHDD.Net
    Encoded date                : UTC 2024-02-13 17:23:52
    Writing application         : mkvmerge v56.1.0 ('My Friend') 64-bit
    Writing library             : libebml v1.4.2 + libmatroska v1.6.4

    Video
    ID                          : 1
    Format                      : AVC
    Format/Info                 : Advanced Video Codec
    Format profile              : High@L4
    Format settings             : CABAC / 4 Ref Frames
    Format settings, CABAC      : Yes
    Format settings, Reference  : 4 frames
    Codec ID                    : V_MPEG4/ISO/AVC
    Duration                    : 1 h 24 min
    Bit rate mode               : Constant
    Bit rate                    : 8 889 kb/s
    Nominal bit rate            : 10 000 kb/s
    Width                       : 1 920 pixels
    Height                      : 1 040 pixels
    Display aspect ratio        : 1.85:1
    Frame rate mode             : Constant
    Frame rate                  : 23.976 (24000/1001) FPS
    Color space                 : YUV
    Chroma subsampling          : 4:2:0
    Bit depth                   : 8 bits
    Scan type                   : Progressive
    Bits/(Pixel*Frame)          : 0.186
    Stream size                 : 5.24 GiB (82%)
    Title                       : CinemaniaHDD
    Default                     : Yes
    Forced                      : No
    Color range                 : Limited
    Color primaries             : BT.709
    Transfer characteristics    : BT.709
    Matrix coefficients         : BT.709

    Audio #1
    ID                          : 2
    Format                      : AC-3
    Format/Info                 : Audio Coding 3
    Commercial name             : Dolby Digital
    Codec ID                    : A_AC3
    Duration                    : 1 h 24 min
    Bit rate mode               : Constant
    Bit rate                    : 640 kb/s
    Channel(s)                  : 6 channels
    Channel layout              : L R C LFE Ls Rs
    Sampling rate               : 48.0 kHz
    Frame rate                  : 31.250 FPS (1536 SPF)
    Compression mode            : Lossy
    Stream size                 : 386 MiB (6%)
    Title                       : Español Latino [CinemaniaHDD]
    Language                    : Spanish
    Service kind                : Complete Main
    Default                     : Yes
    Forced                      : No

    Audio #2
    ID                          : 3
    Format                      : E-AC-3
    Format/Info                 : Enhanced AC-3
    Commercial name             : Dolby Digital Plus
    Codec ID                    : A_EAC3
    Duration                    : 1 h 24 min
    Bit rate mode               : Constant
    Bit rate                    : 640 kb/s
    Channel(s)                  : 6 channels
    Channel layout              : L R C LFE Ls Rs
    Sampling rate               : 48.0 kHz
    Frame rate                  : 31.250 FPS (1536 SPF)
    Compression mode            : Lossy
    Stream size                 : 386 MiB (6%)
    Title                       : Español Latino / E-AC3 [CinemaniaHDD]
    Language                    : Spanish
    Service kind                : Complete Main
    Default                     : No
    Forced                      : No

    Audio #3
    ID                          : 4
    Format                      : E-AC-3
    Format/Info                 : Enhanced AC-3
    Commercial name             : Dolby Digital Plus
    Codec ID                    : A_EAC3
    Duration                    : 1 h 24 min
    Bit rate mode               : Constant
    Bit rate                    : 640 kb/s
    Channel(s)                  : 6 channels
    Channel layout              : L R C LFE Ls Rs
    Sampling rate               : 48.0 kHz
    Frame rate                  : 31.250 FPS (1536 SPF)
    Compression mode            : Lossy
    Stream size                 : 386 MiB (6%)
    Title                       : Inglés [CinemaniaHDD]
    Language                    : English
    Service kind                : Complete Main
    Default                     : No
    Forced                      : No

    Text #1
    ID                          : 5
    Format                      : UTF-8
    Codec ID                    : S_TEXT/UTF8
    Codec ID/Info               : UTF-8 Plain Text
    Duration                    : 1 h 21 min
    Bit rate                    : 3 b/s
    Count of elements           : 80
    Stream size                 : 1.81 KiB (0%)
    Title                       : Forzados [CinemaniaHDD]
    Language                    : Spanish
    Default                     : Yes
    Forced                      : Yes

    Text #2
    ID                          : 6
    Format                      : UTF-8
    Codec ID                    : S_TEXT/UTF8
    Codec ID/Info               : UTF-8 Plain Text
    Duration                    : 1 h 22 min
    Bit rate                    : 54 b/s
    Count of elements           : 1222
    Stream size                 : 32.9 KiB (0%)
    Title                       : Español Latino [CinemaniaHDD]
    Language                    : Spanish
    Default                     : No
    Forced                      : No

    Text #3
    ID                          : 7
    Format                      : UTF-8
    Codec ID                    : S_TEXT/UTF8
    Codec ID/Info               : UTF-8 Plain Text
    Duration                    : 1 h 21 min
    Bit rate                    : 68 b/s
    Count of elements           : 1576
    Stream size                 : 41.2 KiB (0%)
    Title                       : Inglés [CinemaniaHDD]
    Language                    : English
    Default                     : No
    Forced                      : No

     

  • Peso: 6.37 GiB

Sinopsis

Más enfocada en su negocio que en encontrar el amor, Lia se ve obligada a asistir a cinco citas a ciegas organizadas por su familia y su mejor amigo luego de que una adivina le dice que su vida amorosa y el éxito de su tienda de té están entrelazados.

Ficha técnica

  • Titulo original: Five Blind Dates
  • Fecha de lanzamiento: 12-02-2024 (Australia)
  • Director: Shawn Seet
  • Género: Comedia, Romance

Video trailer de la película

Enlaces de descarga

Rip de Bluray

Descargar Five Blind Dates (2024) AMZN WEB-DL 1080p Latino




Aportes de DPeliculasHDmega la pass es:dpeliculashdmega.org Aportes de CinemaniaHD la pass es:cinemaniahdd.com Aportes recientes:cinemaniahdd.net
Guardado en : Comedia , Romance

Películas relacionadas

  • La La Land (2016) REMUX 1080p Latino – CMHDD

    La La Land (2016) REMUX 1080p Latino – CMHDD

    2016
    La La Land (2016) REMUX 1080p Latino – CMHDD

    2h 8m 2016

    Mia (Emma Stone), una joven aspirante a actriz que trabaja como camarera mientras acude a castings, y...

    Director: Peter Kohn

    Género: Comedia

    Actores: Zoë Hall

  • La La Land (2016) REMUX 4K HDR Latino – CMHDD

    La La Land (2016) REMUX 4K HDR Latino – CMHDD

    2016
    La La Land (2016) REMUX 4K HDR Latino – CMHDD

    2h 8m 2016

    Mia, una joven aspirante a actriz que compagina los castings con su trabajo de camarera, y Sebastian,...

    Director: Peter Kohn

    Género: Comedia

    Actores: Zoë Hall

  • Loco Por Ella (2010) Full HD 1080p Latino-CMHDD

    Loco Por Ella (2010) Full HD 1080p Latino-CMHDD

    2010
    Loco Por Ella (2010) Full HD 1080p Latino-CMHDD

    1 h 41 min 2010

    Descargar Loco Por Ella (2010) REMUX 1080p Latino-CMHDD. Cuando Kassie (Jennifer Aniston) cumple los...

    Director: Will Speck

    Género: Actualizadas

    Actores: Will Swenson

  • Loco Por Ella (2010) REMUX 1080p Latino-CMHDD

    Loco Por Ella (2010) REMUX 1080p Latino-CMHDD

    2010
    Loco Por Ella (2010) REMUX 1080p Latino-CMHDD

    1h 39m 2010

    Descargar Loco Por Ella (2010) REMUX 1080p Latino-CMHDD. Cuando Kassie (Jennifer Aniston) cumple los...

    Director: Will Speck

    Género: Comedia

    Actores: Will Swenson

descargar Five Blind Dates (2024) AMZN WEB-DL 1080p Latino 1080p 1080p gratis, Five Blind Dates (2024) AMZN WEB-DL 1080p Latino 1080p mega 1 link, Five Blind Dates (2024) AMZN WEB-DL 1080p Latino 1080p pelicula completa, descargar Five Blind Dates (2024) AMZN WEB-DL 1080p Latino 1080p gratis en mega.

Five Blind Dates (2024) AMZN WEB-DL 1080p Latino pelicula full hd, Five Blind Dates (2024) AMZN WEB-DL 1080p Latino mega latino, Five Blind Dates (2024) AMZN WEB-DL 1080p Latino 4k latino, Five Blind Dates (2024) AMZN WEB-DL 1080p Latino pelicula completa, Five Blind Dates (2024) AMZN WEB-DL 1080p Latino descargar gratis, descargar Five Blind Dates (2024) AMZN WEB-DL 1080p Latino pelicula latino, Five Blind Dates (2024) AMZN WEB-DL 1080p Latino 1 link mega, Five Blind Dates (2024) AMZN WEB-DL 1080p Latino 1 link google drive, Five Blind Dates (2024) AMZN WEB-DL 1080p Latino hd 1080p latino.
Comentarios 0