First Man (2018) IMAX HD 1080p Español Latino

3.580 vistas
1 estrella2 estrellas3 estrellas4 estrellas5 estrellas (6 votos, promedio: 3,33 de 5)
Cargando…

Información de First Man (2018) IMAX HD 1080p Español Latino

Datos de la película

  • Calidad: 1080p
  • Audio: Español Latino AC3 5.1 BLURAY - Ingles AC3 5.1 BLURAY
  • Subtitulos: Español Latino SRT - Ingles SRT
  • Resolución: 1920x1080p
  • Formato: MKV
  • Codec: H.264
  • Encoder: Chesse92
  • Mediainfo: Clic para Mostrar Datos Ver
  • First Man - El Primer Hombre (2018) IMAX 1080p Latino.mkv
    Format                      : Matroska
    Format version              : Version 4
    File size                   : 4.64 GiB
    Duration                    : 2 h 20 min
    Overall bit rate            : 4 708 kb/s
    Movie name                  : CinemaniaHDD.Net
    Encoded date                : UTC 2019-01-13 05:28:40
    Writing application         : mkvmerge v30.1.0 ('Forever And More') 64-bit
    Writing library             : libebml v1.3.6 + libmatroska v1.4.9

    Video
    ID                          : 1
    Format                      : AVC
    Format/Info                 : Advanced Video Codec
    Format profile              : [email protected]
    Format settings             : CABAC / 4 Ref Frames
    Format settings, CABAC      : Yes
    Format settings, ReFrames   : 4 frames
    Codec ID                    : V_MPEG4/ISO/AVC
    Duration                    : 2 h 20 min
    Bit rate                    : 3 500 kb/s
    Width                       : 1 920 pixels
    Height                      : 1 080 pixels
    Display aspect ratio        : 16:9
    Frame rate mode             : Constant
    Frame rate                  : 23.976 (24000/1001) FPS
    Color space                 : YUV
    Chroma subsampling          : 4:2:0
    Bit depth                   : 8 bits
    Scan type                   : Progressive
    Bits/(Pixel*Frame)          : 0.070
    Stream size                 : 3.37 GiB (73%)
    Title                       : HD1080p [Bluray]
    Writing library             : x264 core 155 r2901 7d0ff22
    Encoding settings           : cabac=1 / ref=4 / deblock=1:0:0 / analyse=0x3:0x113 / me=hex / subme=8 / psy=1 / psy_rd=1.00:0.00 / mixed_ref=1 / me_range=16 / chroma_me=1 / trellis=2 / 8x8dct=1 / cqm=0 / deadzone=21,11 / fast_pskip=1 / chroma_qp_offset=-2 / threads=34 / lookahead_threads=5 / sliced_threads=0 / nr=0 / decimate=1 / interlaced=0 / bluray_compat=0 / constrained_intra=0 / bframes=3 / b_pyramid=2 / b_adapt=1 / b_bias=0 / direct=3 / weightb=1 / open_gop=0 / weightp=2 / keyint=240 / keyint_min=24 / scenecut=40 / intra_refresh=0 / rc_lookahead=50 / rc=abr / mbtree=1 / bitrate=3500 / ratetol=1.0 / qcomp=0.60 / qpmin=0 / qpmax=69 / qpstep=4 / vbv_maxrate=62500 / vbv_bufsize=78125 / nal_hrd=none / filler=0 / ip_ratio=1.40 / aq=1:1.00
    Default                     : Yes
    Forced                      : No
    Color range                 : Limited
    Color primaries             : BT.709
    Transfer characteristics    : BT.709
    Matrix coefficients         : BT.709

    Audio #1
    ID                          : 2
    Format                      : AC-3
    Format/Info                 : Audio Coding 3
    Commercial name             : Dolby Digital
    Codec ID                    : A_AC3
    Duration                    : 2 h 20 min
    Bit rate mode               : Constant
    Bit rate                    : 640 kb/s
    Channel(s)                  : 6 channels
    Channel layout              : L R C LFE Ls Rs
    Sampling rate               : 48.0 kHz
    Frame rate                  : 31.250 FPS (1536 SPF)
    Bit depth                   : 16 bits
    Compression mode            : Lossy
    Delay relative to video     : -5 ms
    Stream size                 : 645 MiB (14%)
    Title                       : AC3_5.1_Bluray_Esp
    Language                    : Spanish
    Service kind                : Complete Main
    Default                     : Yes
    Forced                      : Yes

    Audio #2
    ID                          : 3
    Format                      : AC-3
    Format/Info                 : Audio Coding 3
    Commercial name             : Dolby Digital
    Codec ID                    : A_AC3
    Duration                    : 2 h 20 min
    Bit rate mode               : Constant
    Bit rate                    : 640 kb/s
    Channel(s)                  : 6 channels
    Channel layout              : L R C LFE Ls Rs
    Sampling rate               : 48.0 kHz
    Frame rate                  : 31.250 FPS (1536 SPF)
    Bit depth                   : 16 bits
    Compression mode            : Lossy
    Delay relative to video     : -5 ms
    Stream size                 : 645 MiB (14%)
    Title                       : AC3_5.1_Bluray_Eng
    Language                    : English
    Service kind                : Complete Main
    Default                     : No
    Forced                      : No

    Text #1
    ID                          : 4
    Format                      : UTF-8
    Codec ID                    : S_TEXT/UTF8
    Codec ID/Info               : UTF-8 Plain Text
    Duration                    : 2 h 19 min
    Bit rate                    : 45 b/s
    Count of elements           : 1414
    Stream size                 : 46.0 KiB (0%)
    Title                       : Sub_Forzados
    Language                    : Spanish
    Default                     : Yes
    Forced                      : Yes

    Text #2
    ID                          : 5
    Format                      : UTF-8
    Codec ID                    : S_TEXT/UTF8
    Codec ID/Info               : UTF-8 Plain Text
    Duration                    : 2 h 12 min
    Bit rate                    : 2 b/s
    Count of elements           : 66
    Stream size                 : 2.07 KiB (0%)
    Title                       : Sub_Esp
    Language                    : Spanish
    Default                     : No
    Forced                      : No

    Text #3
    ID                          : 6
    Format                      : UTF-8
    Codec ID                    : S_TEXT/UTF8
    Codec ID/Info               : UTF-8 Plain Text
    Duration                    : 2 h 12 min
    Bit rate                    : 55 b/s
    Count of elements           : 1596
    Stream size                 : 54.0 KiB (0%)
    Title                       : Sub_Eng
    Language                    : English
    Default                     : No
    Forced                      : No

    Menu
    00:00:00.000                : en:Chapter 1
    00:07:20.440                : en:Chapter 2
    00:13:35.982                : en:Chapter 3
    00:19:53.192                : en:Chapter 4
    00:25:59.725                : en:Chapter 5
    00:31:30.138                : en:Chapter 6
    00:40:17.248                : en:Chapter 7
    00:49:57.703                : en:Chapter 8
    01:00:02.933                : en:Chapter 9
    01:05:41.521                : en:Chapter 10
    01:11:05.720                : en:Chapter 11
    01:15:12.967                : en:Chapter 12
    01:21:32.304                : en:Chapter 13
    01:30:35.305                : en:Chapter 14
    01:39:00.726                : en:Chapter 15
    01:48:58.323                : en:Chapter 16
    01:54:44.419                : en:Chapter 17
    02:00:14.916                : en:Chapter 18
    02:09:55.705                : en:Chapter 19
    02:14:02.743                : en:Chapter 20

  • Peso: 4.64 GiB

Sinopsis

Descargar First Man (2018) IMAX HD 1080p Español Latino, Mega, Google Drive, Torrent. Cuenta la fascinante historia de la misión de la NASA que llevó al primer hombre a la luna, centrada en Neil Armstrong y el periodo comprendido entre los años 1961 y 1969. Un relato visceral en primera persona, basado en la novela de James R. Hansen, que explora el sacrificio y el precio que representó, tanto para Armstrong como para Estados Unidos, una de las misiones más peligrosas de la historia.

– Adaptación del libro de no ficción de James R. Hansen, ‘First Man: The Life Of Neil A. Armstrong’.

Premios y nominaciones:– Globos de Oro 2019: Mejor Banda Sonora Original. Nominada también a Mejor Actriz de Reparto (Claire Foy).

Ficha técnica

  • Titulo original: First Man
  • Fecha de lanzamiento: 11-10-2018 (United States of America)
  • Director: Damien Chazelle
  • Género: Drama, HD 1080p, Historia
  • Puntuación: 3.3 6 votos
  • Duración:
    2h 21m

Video trailer de la película

Enlaces de descarga

Rip de Bluray

Descargar First Man (2018) IMAX HD 1080p Español Latino




Aportes de DPeliculasHDmega la pass es:dpeliculashdmega.org Aportes de CinemaniaHD la pass es:cinemaniahdd.com
Guardado en : Drama , HD 1080p , Historia

Películas relacionadas

  • The OA (2019) Temporada 2 NF 1080p Latino

    2016
    The OA (2019) Temporada 2 NF 1080p Latino

    0.0 1h 0m 2016

    The OA (20169) Temporada 2 NF 1080p Latino, Prairie Johnson, ciega de niña, regresa a casa a la comunidad...

    Director: Zal Batmanglij

    Género: Drama

    Actores: Phyllis Smith

  • The OA (2016) Temporada 1 NF 1080p Latino

    2016
    The OA (2016) Temporada 1 NF 1080p Latino

    0.0 1h 0m 2016

    Prairie Johnson, ciega de niña, regresa a casa a la comunidad en la que creció con la vista restaurada. Algunos...

    Director: Zal Batmanglij

    Género: Drama

    Actores: Phyllis Smith

  • The Dirt (2019) NF WEB-DL 1080p Latino

    2019
    The Dirt (2019) NF WEB-DL 1080p Latino

    0.0 0h 0m 2019

    Basada en la autobiografía publicada por el grupo Mötley Crüe en 2001, esta obra refleja la historia...

    Director: Jeff Tremaine

    Género: Drama

    Actores: Vince Mattis

Comentarios 0