First Man (2018) Full HD 1080p Español Latino (PLACEBO)

2.049 vistas
1 estrella2 estrellas3 estrellas4 estrellas5 estrellas (3 votos, promedio: 3,67 de 5)
Cargando…

Información de First Man (2018) Full HD 1080p Español Latino (PLACEBO)

Datos de la película

  • Calidad: Full 1080p
  • Audio: Español Latino AC3 5.1 BLURAY - Ingles AC3 5.1 BLURAY
  • Subtitulos: Español Latino PGS - Ingles PGS
  • Resolución: 1920x1080p
  • Formato: MKV
  • Codec: H.264
  • Encoder: Chesse92
  • Mediainfo: Clic para Mostrar Datos Ver
  • First Man (2018) Full 1080p IMAX Latino.mkv
    Format                      : Matroska
    Format version              : Version 4
    File size                   : 9.28 GiB
    Duration                    : 2 h 20 min
    Overall bit rate            : 9 421 kb/s
    Movie name                  : CinemaniaHDD.Net
    Encoded date                : UTC 2019-01-15 04:27:05 / UTC 2019-01-13T18:09:26Z
    Writing application         : mkvmerge v30.1.0 ('Forever And More') 64-bit
    Writing library             : libebml v1.3.6 + libmatroska v1.4.9 / Lavf57.7.2

    Video
    ID                          : 1
    Format                      : AVC
    Format/Info                 : Advanced Video Codec
    Format profile              : [email protected]
    Format settings             : CABAC / 4 Ref Frames
    Format settings, CABAC      : Yes
    Format settings, ReFrames   : 4 frames
    Codec ID                    : V_MPEG4/ISO/AVC
    Duration                    : 2 h 20 min
    Bit rate                    : 8 338 kb/s
    Width                       : 1 920 pixels
    Height                      : 1 080 pixels
    Display aspect ratio        : 16:9
    Frame rate mode             : Constant
    Frame rate                  : 23.976 (24000/1001) FPS
    Color space                 : YUV
    Chroma subsampling          : 4:2:0
    Bit depth                   : 8 bits
    Scan type                   : Progressive
    Bits/(Pixel*Frame)          : 0.168
    Stream size                 : 8.21 GiB (88%)
    Title                       : Full HD1080p [Bluray]
    Writing library             : x264 core 155 r2901 7d0ff22
    Encoding settings           : cabac=1 / ref=4 / deblock=1:0:0 / analyse=0x3:0x133 / me=tesa / subme=11 / psy=1 / psy_rd=1.00:0.00 / mixed_ref=1 / me_range=24 / chroma_me=1 / trellis=2 / 8x8dct=1 / cqm=0 / deadzone=21,11 / fast_pskip=0 / chroma_qp_offset=-2 / threads=34 / lookahead_threads=8 / sliced_threads=0 / nr=0 / decimate=1 / interlaced=0 / bluray_compat=0 / constrained_intra=0 / bframes=16 / b_pyramid=2 / b_adapt=2 / b_bias=0 / direct=3 / weightb=1 / open_gop=0 / weightp=2 / keyint=240 / keyint_min=24 / scenecut=40 / intra_refresh=0 / rc_lookahead=60 / rc=crf / mbtree=1 / crf=20.0 / qcomp=0.60 / qpmin=0 / qpmax=69 / qpstep=4 / vbv_maxrate=62500 / vbv_bufsize=78125 / crf_max=0.0 / nal_hrd=none / filler=0 / ip_ratio=1.40 / aq=1:1.00
    Default                     : Yes
    Forced                      : No
    Color range                 : Limited
    Color primaries             : BT.709
    Transfer characteristics    : BT.709
    Matrix coefficients         : BT.709
    Statistics Tags Issue       : mkvmerge v30.1.0 ('Forever And More') 64-bit 2019-01-15 04:27:05 / mkvmerge v30.1.0 ('Forever And More') 64-bit 2019-01-15 04:27:05 / UTC 2019-01-13T18:09:26Z
    FromStats_BitRate           : 8503664
    FromStats_Duration          : 02:20:59.868000000
    FromStats_FrameCount        : 202834
    FromStats_StreamSize        : 8992485124

    Audio #1
    ID                          : 2
    Format                      : AC-3
    Format/Info                 : Audio Coding 3
    Commercial name             : Dolby Digital
    Codec ID                    : A_EAC3
    Duration                    : 2 h 20 min
    Bit rate mode               : Constant
    Bit rate                    : 448 kb/s
    Channel(s)                  : 6 channels
    Channel layout              : L R C LFE Ls Rs
    Sampling rate               : 48.0 kHz
    Frame rate                  : 31.250 FPS (1536 SPF)
    Bit depth                   : 16 bits
    Compression mode            : Lossy
    Stream size                 : 452 MiB (5%)
    Title                       : AC3_5.1_Bluray_Esp
    Language                    : Spanish
    Service kind                : Complete Main
    Default                     : Yes
    Forced                      : Yes
    Statistics Tags Issue       : mkvmerge v30.1.0 ('Forever And More') 64-bit 2019-01-15 04:27:05 / mkvmerge v30.1.0 ('Forever And More') 64-bit 2019-01-15 04:27:05 / UTC 2019-01-13T18:09:26Z
    FromStats_BitRate           : 448000
    FromStats_Duration          : 02:20:59.936000000
    FromStats_FrameCount        : 264373
    FromStats_StreamSize        : 473756416

    Audio #2
    ID                          : 3
    Format                      : AC-3
    Format/Info                 : Audio Coding 3
    Commercial name             : Dolby Digital
    Codec ID                    : A_AC3
    Duration                    : 2 h 20 min
    Bit rate mode               : Constant
    Bit rate                    : 448 kb/s
    Channel(s)                  : 6 channels
    Channel layout              : L R C LFE Ls Rs
    Sampling rate               : 48.0 kHz
    Frame rate                  : 31.250 FPS (1536 SPF)
    Bit depth                   : 16 bits
    Compression mode            : Lossy
    Stream size                 : 452 MiB (5%)
    Title                       : AC3_5.1_Bluray_Eng
    Language                    : English
    Service kind                : Complete Main
    Default                     : No
    Forced                      : No
    Statistics Tags Issue       : mkvmerge v30.1.0 ('Forever And More') 64-bit 2019-01-15 04:27:05 / mkvmerge v30.1.0 ('Forever And More') 64-bit 2019-01-15 04:27:05 / UTC 2019-01-13T18:09:26Z
    FromStats_BitRate           : 448000
    FromStats_Duration          : 02:20:59.936000000
    FromStats_FrameCount        : 264373
    FromStats_StreamSize        : 473756416

    Text #1
    ID                          : 4
    Format                      : PGS
    Muxing mode                 : zlib
    Codec ID                    : S_HDMV/PGS
    Codec ID/Info               : Picture based subtitle format used on BDs/HD-DVDs
    Title                       : Sub_Forzados [PGS]
    Language                    : Spanish
    Default                     : No
    Forced                      : No
    Statistics Tags Issue       : mkvmerge v30.1.0 ('Forever And More') 64-bit 2019-01-15 04:27:05 / mkvmerge v30.1.0 ('Forever And More') 64-bit 2019-01-15 04:27:05 / UTC 2019-01-13T18:09:26Z
    FromStats_BitRate           : 27150
    FromStats_Duration          : 02:19:39.162000000
    FromStats_FrameCount        : 2796
    FromStats_StreamSize        : 28437575

    Text #2
    ID                          : 5
    Format                      : PGS
    Muxing mode                 : zlib
    Codec ID                    : S_HDMV/PGS
    Codec ID/Info               : Picture based subtitle format used on BDs/HD-DVDs
    Title                       : Sub_Esp [PGS]
    Language                    : Spanish
    Default                     : No
    Forced                      : No
    Statistics Tags Issue       : mkvmerge v30.1.0 ('Forever And More') 64-bit 2019-01-15 04:27:05 / mkvmerge v30.1.0 ('Forever And More') 64-bit 2019-01-15 04:27:05 / UTC 2019-01-13T18:09:26Z
    FromStats_BitRate           : 1009
    FromStats_Duration          : 02:18:36.558000000
    FromStats_FrameCount        : 92
    FromStats_StreamSize        : 1049881

    Text #3
    ID                          : 6
    Format                      : PGS
    Muxing mode                 : zlib
    Codec ID                    : S_HDMV/PGS
    Codec ID/Info               : Picture based subtitle format used on BDs/HD-DVDs
    Title                       : Sub_Eng [PGS]
    Language                    : English
    Default                     : No
    Forced                      : No
    Statistics Tags Issue       : mkvmerge v30.1.0 ('Forever And More') 64-bit 2019-01-15 04:27:05 / mkvmerge v30.1.0 ('Forever And More') 64-bit 2019-01-15 04:27:05 / UTC 2019-01-13T18:09:26Z
    FromStats_BitRate           : 36554
    FromStats_Duration          : 02:12:35.030000000
    FromStats_FrameCount        : 3192
    FromStats_StreamSize        : 36348919

    Menu
    00:00:00.000                : :Chapter 1
    00:07:20.440                : :Chapter 2
    00:13:35.982                : :Chapter 3
    00:19:53.192                : :Chapter 4
    00:25:59.725                : :Chapter 5
    00:31:30.138                : :Chapter 6
    00:40:17.248                : :Chapter 7
    00:49:57.703                : :Chapter 8
    01:00:02.933                : :Chapter 9
    01:05:41.521                : :Chapter 10
    01:11:05.720                : :Chapter 11
    01:15:12.967                : :Chapter 12
    01:21:32.304                : :Chapter 13
    01:30:35.305                : :Chapter 14
    01:39:00.726                : :Chapter 15
    01:48:58.323                : :Chapter 16
    01:54:44.419                : :Chapter 17
    02:00:14.916                : :Chapter 18
    02:09:55.705                : :Chapter 19
    02:14:02.743                : :Chapter 20

  • Peso: 9.28 GiB

Sinopsis

Descargar First Man (2018) Full HD 1080p Español Latino, Mega, Google Drive, Torrent. Relato en primera persona de la vida del astronauta Neil Armstrong y la legendaria misión que le convirtió en el primer hombre que pisó la Luna. La película centra su historia en el programa espacial que llevó a cabo la NASA entre los años 1961 y 1969, desde las primeras investigaciones hasta el momento en que finalmente Neil Armstrong viaja a la Luna en el Apolo 11. Un relato contado desde la perspectiva de Armstrong que explora el costo que supuso, para el astronauta, su familia y sus colegas, el llevar a cabo esta misión que fue una de las más peligrosas de la historia.

Esta película biográfica está dirigida por el oscarizado Damien Chazelle (La ciudad de las estrellas. La La Land, Whiplash), y cuenta con guión del también ganador del Oscar John Singer (Spotlight, El quinto poder), que ha adaptado el libro First Man: A life of Neil A. Armstrong, que James Hansen escribió con la colaboración de la NASA y la familia del astronauta. Ryan Gosling (Dos buenos tipos, La gran apuesta) es el protagonista de este filme en el que da vida al primer ser humano que pisó la Luna. Completan el reparto los actores Corey Stoll (House of Cards, Café Society) como Buzz Aldrin, la segunda persona en pisar la Luna en la legendaria misión del Apolo 11, y Kyle Chandler (Manchester frente al mar, Carol) como el astronauta Deke Slayton.

Ficha técnica

Video trailer de la película

Enlaces de descarga

Rip de Bluray

Descargar First Man (2018) Full HD 1080p Español Latino (PLACEBO)




Aportes de DPeliculasHDmega la pass es:dpeliculashdmega.org Aportes de CinemaniaHD la pass es:cinemaniahdd.com

Películas relacionadas

  • El Vacio (2018) Temporada 1 NF 1080p Latino

    2018
    El Vacio (2018) Temporada 1 NF 1080p Latino

    0.0 0h 25m 2018

    Tres adolescentes despiertan en un reino extraño lleno de portales mágicos, enigmas desconcertantes...

    Director: Vito Viscomi

    Género: Animación

    Actores: Mark Hildreth

  • Wolf Warrior 2 (2017) 1080p Latino

    2017
    Wolf Warrior 2 (2017) 1080p Latino

    0.0 2h 6m 2017

    Secuela de la película de acción exitosa "Wolf Warrior" (2015) La operación más peligrosa de las...

    Director: Wu Jing

    Género: Acción

    Actores: Yu Qian

  • The Front Runner (2018) Full 1080p Latino

    2018
    The Front Runner (2018) Full 1080p Latino

    0.0 1h 53m 2018

    Narra la campaña presidencial del senador estadounidense Gary Hart, que tuvo lugar en 1988, momento...

    Director: Jason Reitman

    Género: Drama

    Actores: William Walker

  • Robin Hood orígenes (2018) Full 1080p Latino

    2018
    Robin Hood orígenes (2018) Full 1080p Latino

    0.0 1h 56m 2018

    Cuando el joven Robin Hood (Taron Egerton) regresa a su hogar, endurecido, tras luchar como guerrero...

    Director: Otto Bathurst

    Género: Acción

    Actores: Yasen Atour

Comentarios 0