×

¿Problemas para descargar con Mozilla, EDGE? Deshabilita la opción "Abrir vinculos en una pestaña nueva" tal como lo muestra ésta imagen.

First Look F9: The Fast Saga (2021) WEB-DL 1080p Latino

297 vistas

Información de First Look F9: The Fast Saga (2021) WEB-DL 1080p Latino

Datos de la película

  • Calidad: 1080p
  • Audio: Español Latino AC3 2.0 - Ingles AC3 2.0
  • Subtitulos: Español Latino SRT - Ingles SRT
  • Resolución: 1920x1080
  • Formato: MKV
  • Codec: H.264
  • Encoder: cinemaniahdd
  • Mediainfo: Clic para Mostrar Datos Ver
  • First Look F9. The Fast Saga (2021) WEB-DL 1080p Latino [CNMNHDD].mkv
    Format                      : Matroska
    Format version              : Version 4
    File size                   : 836 MiB
    Duration                    : 13 min 1 s
    Overall bit rate mode       : Variable
    Overall bit rate            : 8 967 kb/s
    Movie name                  : First Look F9. The Fast Saga (2021) - CinemaniaHDD.Net
    Encoded date                : UTC 2021-06-13 19:53:02
    Writing application         : mkvmerge v56.1.0 ('My Friend') 64-bit
    Writing library             : libebml v1.4.2 + libmatroska v1.6.4

    Video
    ID                          : 1
    Format                      : AVC
    Format/Info                 : Advanced Video Codec
    Format profile              : High@L4
    Format settings             : CABAC / 4 Ref Frames
    Format settings, CABAC      : Yes
    Format settings, Reference  : 4 frames
    Codec ID                    : V_MPEG4/ISO/AVC
    Duration                    : 13 min 1 s
    Bit rate mode               : Variable
    Bit rate                    : 7 000 kb/s
    Width                       : 1 920 pixels
    Height                      : 1 080 pixels
    Display aspect ratio        : 16:9
    Frame rate mode             : Constant
    Frame rate                  : 23.976 (24000/1001) FPS
    Color space                 : YUV
    Chroma subsampling          : 4:2:0
    Bit depth                   : 8 bits
    Scan type                   : Progressive
    Bits/(Pixel*Frame)          : 0.166
    Stream size                 : 764 MiB (91%)
    Title                       : CinemaniaHDD
    Language                    : Spanish
    Default                     : Yes
    Forced                      : No
    Color range                 : Limited
    Color primaries             : BT.709
    Transfer characteristics    : BT.709
    Matrix coefficients         : BT.709

    Audio #1
    ID                          : 2
    Format                      : AC-3
    Format/Info                 : Audio Coding 3
    Commercial name             : Dolby Digital
    Codec ID                    : A_AC3
    Duration                    : 13 min 1 s
    Bit rate mode               : Constant
    Bit rate                    : 256 kb/s
    Channel(s)                  : 2 channels
    Channel layout              : L R
    Sampling rate               : 48.0 kHz
    Frame rate                  : 31.250 FPS (1536 SPF)
    Compression mode            : Lossy
    Stream size                 : 35.8 MiB (4%)
    Title                       : Español latino [CinemaniaHDD]
    Language                    : Spanish
    Service kind                : Complete Main
    Default                     : Yes
    Forced                      : No

    Audio #2
    ID                          : 3
    Format                      : AC-3
    Format/Info                 : Audio Coding 3
    Commercial name             : Dolby Digital
    Codec ID                    : A_AC3
    Duration                    : 13 min 1 s
    Bit rate mode               : Constant
    Bit rate                    : 256 kb/s
    Channel(s)                  : 2 channels
    Channel layout              : L R
    Sampling rate               : 48.0 kHz
    Frame rate                  : 31.250 FPS (1536 SPF)
    Compression mode            : Lossy
    Stream size                 : 35.8 MiB (4%)
    Title                       : Inglés [CinemaniaHDD]
    Language                    : English
    Service kind                : Complete Main
    Default                     : No
    Forced                      : No

    Text #1
    ID                          : 4
    Format                      : UTF-8
    Codec ID                    : S_TEXT/UTF8
    Codec ID/Info               : UTF-8 Plain Text
    Duration                    : 12 min 29 s
    Bit rate                    : 118 b/s
    Count of elements           : 285
    Stream size                 : 10.8 KiB (0%)
    Title                       : Español latino [CC] [CinemaniaHDD]
    Language                    : Spanish
    Default                     : No
    Forced                      : No

    Text #2
    ID                          : 5
    Format                      : UTF-8
    Codec ID                    : S_TEXT/UTF8
    Codec ID/Info               : UTF-8 Plain Text
    Duration                    : 12 min 56 s
    Bit rate                    : 120 b/s
    Count of elements           : 287
    Stream size                 : 11.4 KiB (0%)
    Title                       : Inglés [CC] [CinemaniaHDD]
    Language                    : English
    Default                     : No
    Forced                      : No

     

  • Peso: 836 MiB

Sinopsis

Domic Toretto lleva una vida tranquila, lejos de todo, con Letty y su hijo, el pequeño Brian. el peligro está siempre al acecho. Esta vez, esta amenaza obligará a Domic Toretto a enfrentarse a los pecados de su pasado para salvar a los que más quiere. Su equipo se reúne de nuevo para detener un plan que conmocionará al mundo, liderado por el mejor piloto y el mayor asesino que han encontrado: Jakob, el hermano abandonado de Domic.

Ficha técnica

Video trailer de la película

Enlaces de descarga

Rip de Bluray

Descargar First Look F9: The Fast Saga (2021) WEB-DL 1080p Latino




Aportes de DPeliculasHDmega la pass es:dpeliculashdmega.org Aportes de CinemaniaHD la pass es:cinemaniahdd.com
Guardado en : Acción , Aventura , Suspenso

Películas relacionadas

descargar First Look F9: The Fast Saga (2021) WEB-DL 1080p Latino 1080p 1080p gratis, First Look F9: The Fast Saga (2021) WEB-DL 1080p Latino 1080p mega 1 link, First Look F9: The Fast Saga (2021) WEB-DL 1080p Latino 1080p pelicula completa, descargar First Look F9: The Fast Saga (2021) WEB-DL 1080p Latino 1080p gratis en mega.

First Look F9: The Fast Saga (2021) WEB-DL 1080p Latino pelicula full hd, First Look F9: The Fast Saga (2021) WEB-DL 1080p Latino mega latino, First Look F9: The Fast Saga (2021) WEB-DL 1080p Latino 4k latino, First Look F9: The Fast Saga (2021) WEB-DL 1080p Latino pelicula completa, First Look F9: The Fast Saga (2021) WEB-DL 1080p Latino descargar gratis, descargar First Look F9: The Fast Saga (2021) WEB-DL 1080p Latino pelicula latino, First Look F9: The Fast Saga (2021) WEB-DL 1080p Latino 1 link mega, First Look F9: The Fast Saga (2021) WEB-DL 1080p Latino 1 link google drive, First Look F9: The Fast Saga (2021) WEB-DL 1080p Latino hd 1080p latino.
Comentarios 0