×

¿Problemas para descargar con Mozilla, EDGE? Deshabilita la opción "Abrir vinculos en una pestaña nueva" tal como lo muestra ésta imagen.

First Knight (1995) REMUX 1080p Latino – CMHDD

452 vistas

Información de First Knight (1995) REMUX 1080p Latino – CMHDD

Datos de la película

  • Calidad: Full 1080p
  • Audio: Español Latino AC3 2.0 BLURAY - Ingles AC3 5.1 BLURAY
  • Subtitulos: Español Latino PGS
  • Resolución: 1920x1080p
  • Formato: MKV
  • Codec: H.264
  • Encoder: 26.7 GiB
  • Mediainfo: Clic para Mostrar Datos Ver
  • Format                      : Matroska
    Format version              : Version 4
    File size                   : 26.7 GiB
    Duration                    : 2 h 13 min
    Overall bit rate mode       : Variable
    Overall bit rate            : 28.5 Mb/s
    Movie name                  : First Knight (1995) REMUX 1080p Latino - CMHDD
    Encoded date                : UTC 2022-06-15 22:42:41
    Writing application         : mkvmerge v17.0.0 ('Be Ur Friend') 64-bit
    Writing library             : libebml v1.3.5 + libmatroska v1.4.8

    Video
    ID                          : 1
    Format                      : AVC
    Format/Info                 : Advanced Video Codec
    Format profile              : High@L4.1
    Format settings             : CABAC / 2 Ref Frames
    Format settings, CABAC      : Yes
    Format settings, Reference  : 2 frames
    Codec ID                    : V_MPEG4/ISO/AVC
    Duration                    : 2 h 13 min
    Bit rate mode               : Variable
    Bit rate                    : 26.0 Mb/s
    Width                       : 1 920 pixels
    Height                      : 1 080 pixels
    Display aspect ratio        : 16:9
    Frame rate mode             : Constant
    Frame rate                  : 23.976 (24000/1001) FPS
    Color space                 : YUV
    Chroma subsampling          : 4:2:0
    Bit depth                   : 8 bits
    Scan type                   : Progressive
    Bits/(Pixel*Frame)          : 0.522
    Stream size                 : 24.3 GiB (91%)
    Language                    : English
    Default                     : Yes
    Forced                      : No

    Audio #1
    ID                          : 2
    Format                      : MLP FBA
    Format/Info                 : Meridian Lossless Packing FBA
    Commercial name             : Dolby TrueHD
    Codec ID                    : A_TRUEHD
    Duration                    : 2 h 13 min
    Bit rate mode               : Variable
    Bit rate                    : 1 874 kb/s
    Maximum bit rate            : 3 366 kb/s
    Channel(s)                  : 6 channels
    Channel layout              : L R C LFE Ls Rs
    Sampling rate               : 48.0 kHz
    Frame rate                  : 1 200.000 FPS (40 SPF)
    Compression mode            : Lossless
    Stream size                 : 1.75 GiB (7%)
    Language                    : English
    Default                     : No
    Forced                      : No

    Audio #2
    ID                          : 3
    Format                      : AC-3
    Format/Info                 : Audio Coding 3
    Commercial name             : Dolby Digital
    Codec ID                    : A_AC3
    Duration                    : 2 h 13 min
    Bit rate mode               : Constant
    Bit rate                    : 192 kb/s
    Channel(s)                  : 2 channels
    Channel layout              : L R
    Sampling rate               : 48.0 kHz
    Frame rate                  : 31.250 FPS (1536 SPF)
    Compression mode            : Lossy
    Stream size                 : 184 MiB (1%)
    Language                    : Spanish
    Service kind                : Complete Main
    Default                     : Yes
    Forced                      : No

    Audio #3
    ID                          : 4
    Format                      : AC-3
    Format/Info                 : Audio Coding 3
    Commercial name             : Dolby Digital
    Codec ID                    : A_AC3
    Duration                    : 2 h 13 min
    Bit rate mode               : Constant
    Bit rate                    : 448 kb/s
    Channel(s)                  : 6 channels
    Channel layout              : L R C LFE Ls Rs
    Sampling rate               : 48.0 kHz
    Frame rate                  : 31.250 FPS (1536 SPF)
    Compression mode            : Lossy
    Stream size                 : 429 MiB (2%)
    Language                    : English
    Service kind                : Complete Main
    Default                     : No
    Forced                      : No

    Text
    ID                          : 5
    Format                      : UTF-8
    Codec ID                    : S_TEXT/UTF8
    Codec ID/Info               : UTF-8 Plain Text
    Duration                    : 2 h 13 min
    Bit rate                    : 29 b/s
    Count of elements           : 672
    Stream size                 : 28.8 KiB (0%)
    Language                    : Spanish
    Default                     : No
    Forced                      : No

    Menu
    00:00:00.000                : :00:00:00.000
    00:09:44.959                : :00:09:44.876
    00:17:37.931                : :00:17:37.848
    00:23:41.753                : :00:23:41.629
    00:35:41.431                : :00:35:41.348
    00:39:03.507                : :00:39:03.424
    00:44:38.008                : :00:44:37.925
    00:52:44.619                : :00:52:44.536
    00:58:16.284                : :00:58:16.201
    01:07:06.522                : :01:07:06.439
    01:18:26.326                : :01:18:26.243
    01:27:07.555                : :01:27:07.472
    01:37:27.842                : :01:37:27.759
    01:46:03.315                : :01:46:03.232
    01:52:09.097                : :01:52:08.931
    01:58:32.730                : :01:58:32.647

  • Peso: Dacarys

Sinopsis

Amor, honor, traición y pasión en el Reino de Camelot. Cuando Lady Ginebra contrae matrimonio con el rey Arturo, lo hace movida por dos razones: el respeto y la admiración que siente por él y la necesidad de que proteja su reino, Leonesse. Pero el destino hace que se cruce en su camino el apuesto caballero Lanzarote, recién llegado a Camelot. Surge de inmediato el amor entre ellos, colocando a Ginebra en la tesitura de elegir entre el rey o Lanzarote.

Ficha técnica

Video trailer de la película

Enlaces de descarga

Rip de Bluray

Descargar First Knight (1995) REMUX 1080p Latino – CMHDD


Aportes de DPeliculasHDmega la pass es:dpeliculashdmega.org Aportes de CinemaniaHD la pass es:cinemaniahdd.com
Guardado en : Acción , Aventura , Drama , Romance

Películas relacionadas

  • Emily la criminal (2022) HD 1080p Latino

    Emily la criminal (2022) HD 1080p Latino

    2022
    Emily la criminal (2022) HD 1080p Latino

    1h 37m 2022

    Descargar Emily la criminal (2022) HD 1080p Latino. Emily, que tiene una deuda estudiantil y está excluida...

    Director: John Patton Ford

    Género: Crimen

    Actores: Theo Rossi

  • Emily la criminal (2022) REMUX 1080p Latino

    Emily la criminal (2022) REMUX 1080p Latino

    2022
    Emily la criminal (2022) REMUX 1080p Latino

    1h 37m 2022

    Descargar Emily la criminal (2022) REMUX 1080p Latino. Emily, que tiene una deuda estudiantil y está...

    Director: John Patton Ford

    Género: Crimen

    Actores: Theo Rossi

  • Herencia peligrosa (2022) HD 1080p Latino

    Herencia peligrosa (2022) HD 1080p Latino

    2022
    Herencia peligrosa (2022) HD 1080p Latino

    1h 34m 2022

    Descargar Herencia peligrosa (2022) HD 1080p Latino. Tres ladrones se hacen con el yate de lujo de una...

    Director: Declan Whitebloom

    Género: Acción

    Actores: Vernon Davis

descargar First Knight (1995) REMUX 1080p Latino – CMHDD Full 1080p 1080p gratis, First Knight (1995) REMUX 1080p Latino – CMHDD Full 1080p mega 1 link, First Knight (1995) REMUX 1080p Latino – CMHDD Full 1080p pelicula completa, descargar First Knight (1995) REMUX 1080p Latino – CMHDD Full 1080p gratis en mega.

First Knight (1995) REMUX 1080p Latino – CMHDD pelicula full hd, First Knight (1995) REMUX 1080p Latino – CMHDD mega latino, First Knight (1995) REMUX 1080p Latino – CMHDD 4k latino, First Knight (1995) REMUX 1080p Latino – CMHDD pelicula completa, First Knight (1995) REMUX 1080p Latino – CMHDD descargar gratis, descargar First Knight (1995) REMUX 1080p Latino – CMHDD pelicula latino, First Knight (1995) REMUX 1080p Latino – CMHDD 1 link mega, First Knight (1995) REMUX 1080p Latino – CMHDD 1 link google drive, First Knight (1995) REMUX 1080p Latino – CMHDD hd 1080p latino.
Comentarios 0