Fireworks (2017) Full 1080p Latino

528 vistas
1 estrella2 estrellas3 estrellas4 estrellas5 estrellas (Ninguna valoración todavía)
Cargando…

Información de Fireworks (2017) Full 1080p Latino

Datos de la película

  • Calidad: Full 1080p
  • Audio: Español Latino AC3 5.1 DVD- Japones AC3 5.1 BLURAY
  • Subtitulos: Español Latino SRT- FORZADOS SRT
  • Resolución: 1920x1080
  • Formato: MKV
  • Codec: H.264
  • Encoder: cinemanihdd
  • Mediainfo: Clic para Mostrar Datos Ver
  • Fireworks (2017) Full 1080p Latino.mkv
    Format                      : Matroska
    Format version              : Version 4
    File size                   : 5 GiB
    Duration                    : 1 h 30 min
    Overall bit rate            : 8 145 kb/s
    Movie name                  : CinemaniaHDD.Net
    Encoded date                : UTC 2019-02-11 22:13:39
    Writing application         : mkvmerge v22.0.0 ('At The End Of The World') 64-bit
    Writing library             : libebml v1.3.5 + libmatroska v1.4.8
    Attachments                 : MSYH.TTF / MSYHBD.TTF / tahoma.ttf

    Video
    ID                          : 1
    Format                      : AVC
    Format/Info                 : Advanced Video Codec
    Format profile              : [email protected]
    Format settings             : CABAC / 4 Ref Frames
    Format settings, CABAC      : Yes
    Format settings, ReFrames   : 4 frames
    Codec ID                    : V_MPEG4/ISO/AVC
    Duration                    : 1 h 30 min
    Bit rate                    : 7 000 kb/s
    Width                       : 1 920 pixels
    Height                      : 1 080 pixels
    Display aspect ratio        : 16:9
    Frame rate mode             : Constant
    Frame rate                  : 23.976 (24000/1001) FPS
    Color space                 : YUV
    Chroma subsampling          : 4:2:0
    Bit depth                   : 8 bits
    Scan type                   : Progressive
    Bits/(Pixel*Frame)          : 0.141
    Stream size                 : 4.40 GiB (86%)
    Title                       : CinemaniaHDD.Net
    Writing library             : x264 core 130 r2273 b3065e6
    Encoding settings           : cabac=1 / ref=4 / deblock=1:-1:-1 / analyse=0x3:0x113 / me=umh / subme=11 / psy=1 / psy_rd=1.00:0.00 / mixed_ref=1 / me_range=32 / chroma_me=1 / trellis=2 / 8x8dct=1 / cqm=0 / deadzone=21,11 / fast_pskip=0 / chroma_qp_offset=-4 / threads=12 / lookahead_threads=2 / sliced_threads=0 / nr=0 / decimate=0 / interlaced=0 / bluray_compat=0 / constrained_intra=0 / bframes=8 / b_pyramid=2 / b_adapt=2 / b_bias=0 / direct=3 / weightb=1 / open_gop=0 / weightp=2 / keyint=250 / keyint_min=23 / scenecut=40 / intra_refresh=0 / rc_lookahead=85 / rc=2pass / mbtree=1 / bitrate=7000 / ratetol=1.0 / qcomp=0.60 / qpmin=0 / qpmax=69 / qpstep=4 / cplxblur=20.0 / qblur=0.5 / ip_ratio=1.40 / aq=1:0.85
    Language                    : Chinese
    Default                     : Yes
    Forced                      : No

    Audio #1
    ID                          : 2
    Format                      : AC-3
    Format/Info                 : Audio Coding 3
    Commercial name             : Dolby Digital
    Codec ID                    : A_AC3
    Duration                    : 1 h 30 min
    Bit rate mode               : Constant
    Bit rate                    : 448 kb/s
    Channel(s)                  : 6 channels
    Channel layout              : L R C LFE Ls Rs
    Sampling rate               : 44.1 kHz
    Frame rate                  : 28.711 FPS (1536 SPF)
    Bit depth                   : 16 bits
    Compression mode            : Lossy
    Stream size                 : 289 MiB (6%)
    Title                       : CinemaniaHDD.Net
    Language                    : Spanish
    Service kind                : Complete Main
    Default                     : Yes
    Forced                      : No

    Audio #2
    ID                          : 3
    Format                      : AC-3
    Format/Info                 : Audio Coding 3
    Commercial name             : Dolby Digital
    Codec ID                    : A_AC3
    Duration                    : 1 h 30 min
    Bit rate mode               : Constant
    Bit rate                    : 640 kb/s
    Channel(s)                  : 6 channels
    Channel layout              : L R C LFE Ls Rs
    Sampling rate               : 48.0 kHz
    Frame rate                  : 31.250 FPS (1536 SPF)
    Bit depth                   : 16 bits
    Compression mode            : Lossy
    Stream size                 : 412 MiB (8%)
    Title                       : CinemaniaHDD.Net
    Language                    : Chinese
    Service kind                : Complete Main
    Default                     : No
    Forced                      : No

    Text #1
    ID                          : 4
    Format                      : UTF-8
    Codec ID                    : S_TEXT/UTF8
    Codec ID/Info               : UTF-8 Plain Text
    Duration                    : 1 h 18 min
    Bit rate                    : 0 b/s
    Count of elements           : 19
    Stream size                 : 588 Bytes (0%)
    Title                       : Forzados - CinemaniaHDD.Net
    Language                    : Spanish
    Default                     : Yes
    Forced                      : Yes

    Text #2
    ID                          : 5
    Format                      : UTF-8
    Codec ID                    : S_TEXT/UTF8
    Codec ID/Info               : UTF-8 Plain Text
    Duration                    : 1 h 24 min
    Bit rate                    : 58 b/s
    Count of elements           : 1273
    Stream size                 : 36.6 KiB (0%)
    Title                       : SDH - CinemaniaHDD.Net
    Language                    : Spanish
    Default                     : No
    Forced                      : No

    Text #3
    ID                          : 6
    Format                      : ASS
    Codec ID                    : S_TEXT/ASS
    Codec ID/Info               : Advanced Sub Station Alpha
    Duration                    : 1 h 28 min
    Bit rate                    : 153 b/s
    Count of elements           : 1154
    Compression mode            : Lossless
    Stream size                 : 99.1 KiB (0%)
    Title                       : CinemaniaHDD.Net
    Language                    : Chinese
    Default                     : No
    Forced                      : No

  • Peso: 5 GiB

Sinopsis

Es verano y el festival de fuegos artificiales se acerca. Nazuka Oikawa pronto se trasladará a otro instituto como consecuencia del nuevo matrimonio de su madre. La joven querrá huir del incierto destino que la espera y decide convencer a Norimichi Shimada para que se escape con ella. Sin embargo, su amigo por miedo a las represalias no acepta su propuesta. Arrepentido de su decisión, Norimichi lanzará una misteriosa bola al mar que le hará regresar al día y momento en el que Nazuna le pide que se fugue con ella. ¿Cuáles serán las consecuencias de este mágico acontecimiento, en un día que se repite una y otra vez?

Ficha técnica

Video trailer de la película

Enlaces de descarga

Rip de Bluray

Descargar Fireworks (2017) Full 1080p Latino




Aportes de DPeliculasHDmega la pass es:dpeliculashdmega.org Aportes de CinemaniaHD la pass es:cinemaniahdd.com
Guardado en : Familia , Fantasía , Romance

Películas relacionadas

Comentarios 0