×

¿Problemas para descargar con Mozilla, EDGE? Deshabilita la opción "Abrir vinculos en una pestaña nueva" tal como lo muestra ésta imagen.

Fireproof (2008) AMZN WEB-DL 1080p Latino

98 vistas

Información de Fireproof (2008) AMZN WEB-DL 1080p Latino

Datos de la película

  • Calidad: 1080p
  • Audio: Español Latino AC3 5.1 WEB-DL - Ingles AC3 5.1 WEB-DL
  • Subtitulos: Español Latino SRT- FORZADOS SRT
  • Resolución: 1920x1080
  • Formato: MKV
  • Codec: H.264
  • Encoder: cinemaniahdd
  • Mediainfo: Clic para Mostrar Datos Ver
  • Fireproof (2008) AMZN WEB-DL 1080p Latino [CNMNHDD].mkv
    Format                      : Matroska
    Format version              : Version 4
    File size                   : 9.32 GiB
    Duration                    : 1 h 58 min
    Overall bit rate            : 11.3 Mb/s
    Movie name                  : A Prueba De Fuego (2008) [1080p] - CinemaniaHDD.Net
    Encoded date                : UTC 2023-12-06 01:35:41
    Writing application         : mkvmerge v56.1.0 ('My Friend') 64-bit
    Writing library             : libebml v1.4.2 + libmatroska v1.6.4

    Video
    ID                          : 1
    Format                      : AVC
    Format/Info                 : Advanced Video Codec
    Format profile              : High@L4
    Format settings             : CABAC / 4 Ref Frames
    Format settings, CABAC      : Yes
    Format settings, Reference  : 4 frames
    Codec ID                    : V_MPEG4/ISO/AVC
    Duration                    : 1 h 58 min
    Bit rate mode               : Constant
    Bit rate                    : 9 349 kb/s
    Nominal bit rate            : 10 000 kb/s
    Width                       : 1 920 pixels
    Height                      : 1 080 pixels
    Display aspect ratio        : 16:9
    Frame rate mode             : Constant
    Frame rate                  : 23.976 (24000/1001) FPS
    Color space                 : YUV
    Chroma subsampling          : 4:2:0
    Bit depth                   : 8 bits
    Scan type                   : Progressive
    Bits/(Pixel*Frame)          : 0.188
    Stream size                 : 7.73 GiB (83%)
    Title                       : CinemaniaHDD
    Default                     : Yes
    Forced                      : No
    Color range                 : Limited
    Color primaries             : BT.709
    Transfer characteristics    : BT.709
    Matrix coefficients         : BT.709

    Audio #1
    ID                          : 2
    Format                      : AC-3
    Format/Info                 : Audio Coding 3
    Commercial name             : Dolby Digital
    Codec ID                    : A_AC3
    Duration                    : 1 h 58 min
    Bit rate mode               : Constant
    Bit rate                    : 640 kb/s
    Channel(s)                  : 6 channels
    Channel layout              : L R C LFE Ls Rs
    Sampling rate               : 48.0 kHz
    Frame rate                  : 31.250 FPS (1536 SPF)
    Compression mode            : Lossy
    Stream size                 : 542 MiB (6%)
    Title                       : Español Latino [CinemaniaHDD]
    Language                    : Spanish
    Service kind                : Complete Main
    Default                     : Yes
    Forced                      : No

    Audio #2
    ID                          : 3
    Format                      : E-AC-3
    Format/Info                 : Enhanced AC-3
    Commercial name             : Dolby Digital Plus
    Codec ID                    : A_EAC3
    Duration                    : 1 h 58 min
    Bit rate mode               : Constant
    Bit rate                    : 640 kb/s
    Channel(s)                  : 6 channels
    Channel layout              : L R C LFE Ls Rs
    Sampling rate               : 48.0 kHz
    Frame rate                  : 31.250 FPS (1536 SPF)
    Compression mode            : Lossy
    Stream size                 : 542 MiB (6%)
    Title                       : Español latino / E-AC3 [CinemaniaHDD]
    Language                    : Spanish
    Service kind                : Complete Main
    Default                     : No
    Forced                      : No

    Audio #3
    ID                          : 4
    Format                      : E-AC-3
    Format/Info                 : Enhanced AC-3
    Commercial name             : Dolby Digital Plus
    Codec ID                    : A_EAC3
    Duration                    : 1 h 58 min
    Bit rate mode               : Constant
    Bit rate                    : 640 kb/s
    Channel(s)                  : 6 channels
    Channel layout              : L R C LFE Ls Rs
    Sampling rate               : 48.0 kHz
    Frame rate                  : 31.250 FPS (1536 SPF)
    Compression mode            : Lossy
    Stream size                 : 542 MiB (6%)
    Title                       : Inglés [CinemaniaHDD]
    Language                    : English
    Service kind                : Complete Main
    Default                     : No
    Forced                      : No

    Text #1
    ID                          : 5
    Format                      : UTF-8
    Codec ID                    : S_TEXT/UTF8
    Codec ID/Info               : UTF-8 Plain Text
    Duration                    : 1 min 55 s
    Bit rate                    : 13 b/s
    Count of elements           : 7
    Stream size                 : 193 Bytes (0%)
    Title                       : Forzados [CinemaniaHDD]
    Language                    : Spanish
    Default                     : Yes
    Forced                      : Yes

    Text #2
    ID                          : 6
    Format                      : UTF-8
    Codec ID                    : S_TEXT/UTF8
    Codec ID/Info               : UTF-8 Plain Text
    Duration                    : 1 h 51 min
    Bit rate                    : 58 b/s
    Count of elements           : 1402
    Stream size                 : 47.4 KiB (0%)
    Title                       : Español Latino [CinemaniaHDD]
    Language                    : Spanish
    Default                     : No
    Forced                      : No

    Text #3
    ID                          : 7
    Format                      : UTF-8
    Codec ID                    : S_TEXT/UTF8
    Codec ID/Info               : UTF-8 Plain Text
    Duration                    : 1 h 50 min
    Bit rate                    : 63 b/s
    Count of elements           : 1387
    Stream size                 : 51.1 KiB (0%)
    Title                       : Inglés [CinemaniaHDD]
    Language                    : English
    Default                     : No
    Forced                      : No

    Menu
    00:00:00.000                : 1. Studio Logos
    00:00:42.000                : 2. Catherine Talks to Her Mother, Opening Credits
    00:01:39.000                : 3. The Firemen Return From an Emergency Call
    00:03:16.000                : 4. Catherine Leaves Work to See Her Parents
    00:04:41.000                : 5. Catherine Visits Her Parents
    00:05:28.000                : 6. Caleb and Catherine Argue
    00:07:12.000                : 7. Caleb Discusses His Marital Problems with Michael
    00:08:45.000                : 8. Caleb and Catherine Have Another Argument
    00:11:21.000                : 9. Caleb and Catherine Go to Bed Separately
    00:12:31.000                : 10. Caleb Notices Michael and Tina
    00:13:46.000                : 11. Caleb and Catherine Complain About Each Other
    00:15:25.000                : 12. Some Teens Race Their Cars
    00:16:29.000                : 13. The Fire Department Responds to an Emergency
    00:21:04.000                : 14. Michael Is Relieved After His Brush with Death
    00:22:19.000                : 15. Firefighters Discuss the Afterlife
    00:23:36.000                : 16. Caleb's Parents Pay Him a Visit
    00:24:43.000                : 17. Caleb Discusses Divorce with His Father

  • Peso: 9.32 GiB

Sinopsis

Un joven bombero que, tras una valiente acción se convierte en un héroe para toda la ciudad, pasa sin embargo por una grave crisis matrimonial… Los creadores de «Facing the Giants» -una cinta sobre fútbol americano y los valores cristianos que costó apenas 100.000 dólares y recaudó 10 millones- vuelven a conseguir otro sorprendente éxito de taquilla -«Fireproof», con un presupuesto estimado de medio millón de dólares, se puso en su primera semana en el 4º puesto del box office americano recaudando 6,5 millones- con este drama romántico protagonizado por Kirk Cameron, conocido por la serie «Los problemas crecen».

Ficha técnica

  • Titulo original: Fireproof
  • Fecha de lanzamiento: 26-09-2008 (United States of America)
  • Director: Alex Kendrick
  • Género: Drama

Video trailer de la película

Enlaces de descarga

Rip de Bluray

Descargar Fireproof (2008) AMZN WEB-DL 1080p Latino




Aportes de DPeliculasHDmega la pass es:dpeliculashdmega.org Aportes de CinemaniaHD la pass es:cinemaniahdd.com Aportes recientes:cinemaniahdd.net
Guardado en : Drama

Películas relacionadas

descargar Fireproof (2008) AMZN WEB-DL 1080p Latino 1080p 1080p gratis, Fireproof (2008) AMZN WEB-DL 1080p Latino 1080p mega 1 link, Fireproof (2008) AMZN WEB-DL 1080p Latino 1080p pelicula completa, descargar Fireproof (2008) AMZN WEB-DL 1080p Latino 1080p gratis en mega.

Fireproof (2008) AMZN WEB-DL 1080p Latino pelicula full hd, Fireproof (2008) AMZN WEB-DL 1080p Latino mega latino, Fireproof (2008) AMZN WEB-DL 1080p Latino 4k latino, Fireproof (2008) AMZN WEB-DL 1080p Latino pelicula completa, Fireproof (2008) AMZN WEB-DL 1080p Latino descargar gratis, descargar Fireproof (2008) AMZN WEB-DL 1080p Latino pelicula latino, Fireproof (2008) AMZN WEB-DL 1080p Latino 1 link mega, Fireproof (2008) AMZN WEB-DL 1080p Latino 1 link google drive, Fireproof (2008) AMZN WEB-DL 1080p Latino hd 1080p latino.
Comentarios 0