×

¿Problemas para descargar con Mozilla, EDGE? Deshabilita la opción "Abrir vinculos en una pestaña nueva" tal como lo muestra ésta imagen.

Fire in Paradise (2019) Web-DL 1080p Latino

816 vistas

Información de Fire in Paradise (2019) Web-DL 1080p Latino

Datos de la película

  • Calidad: WEBDL
  • Audio: Español Latino E-AC3 5.1 Netflix - Ingles E-AC3 5.1 Netflix
  • Subtitulos: Español Latino SRT- FORZADOS SRT
  • Resolución: 1920x1080p
  • Formato: MKV
  • Codec: H.264
  • Encoder: CinemaniaHDD
  • Mediainfo: Clic para Mostrar Datos Ver
  • Fire In Paradise (2019) NF 1080p Latino.mkv
    Format                      : Matroska
    Format version              : Version 4
    File size                   : 2.42 GiB
    Duration                    : 40 min 2 s
    Overall bit rate mode       : Variable
    Overall bit rate            : 8 645 kb/s
    Movie name                  : Fire In Paradise (2019) NF 1080p Latino
    Encoded date                : UTC 2019-11-01 11:18:21
    Writing application         : mkvmerge v38.0.0 ('The Silent Type') 64-bit
    Writing library             : libebml v1.3.9 + libmatroska v1.5.2

    Video
    ID                          : 1
    Format                      : AVC
    Format/Info                 : Advanced Video Codec
    Format profile              : Main@L4
    Format settings             : CABAC / 3 Ref Frames
    Format settings, CABAC      : Yes
    Format settings, ReFrames   : 3 frames
    Codec ID                    : V_MPEG4/ISO/AVC
    Duration                    : 40 min 2 s
    Bit rate mode               : Variable
    Bit rate                    : 7 500 kb/s
    Maximum bit rate            : 11.2 Mb/s
    Width                       : 1 920 pixels
    Height                      : 1 080 pixels
    Display aspect ratio        : 16:9
    Frame rate mode             : Constant
    Frame rate                  : 23.976 (24000/1001) FPS
    Color space                 : YUV
    Chroma subsampling          : 4:2:0
    Bit depth                   : 8 bits
    Scan type                   : Progressive
    Bits/(Pixel*Frame)          : 0.151
    Stream size                 : 2.08 GiB (86%)
    Title                       : CinemaniaHDD
    Writing library             : x264 core 148 r2715 7e75228
    Encoding settings           : cabac=1 / ref=3 / deblock=1:0:0 / analyse=0x1:0x111 / me=umh / subme=10 / psy=1 / psy_rd=1.00:0.00 / mixed_ref=1 / me_range=24 / chroma_me=1 / trellis=2 / 8x8dct=0 / cqm=0 / deadzone=21,11 / fast_pskip=1 / chroma_qp_offset=-2 / threads=8 / lookahead_threads=1 / sliced_threads=0 / nr=0 / decimate=1 / interlaced=0 / bluray_compat=0 / stitchable=1 / constrained_intra=0 / bframes=2 / b_pyramid=0 / b_adapt=2 / b_bias=0 / direct=3 / weightb=1 / open_gop=0 / weightp=2 / keyint=250 / keyint_min=23 / scenecut=0 / intra_refresh=0 / rc_lookahead=48 / rc=2pass / mbtree=1 / bitrate=7500 / ratetol=1.0 / qcomp=0.50 / qpmin=6 / qpmax=51 / qpstep=4 / cplxblur=20.0 / qblur=0.5 / vbv_maxrate=11250 / vbv_bufsize=15000 / nal_hrd=vbr / filler=0 / ip_ratio=1.40 / aq=1:1.00
    Default                     : Yes
    Forced                      : No

    Audio #1
    ID                          : 2
    Format                      : E-AC-3
    Format/Info                 : Enhanced AC-3
    Commercial name             : Dolby Digital Plus
    Codec ID                    : A_EAC3
    Duration                    : 40 min 2 s
    Bit rate mode               : Constant
    Bit rate                    : 448 kb/s
    Channel(s)                  : 6 channels
    Channel layout              : L R C LFE Ls Rs
    Sampling rate               : 48.0 kHz
    Frame rate                  : 31.250 FPS (1536 SPF)
    Compression mode            : Lossy
    Stream size                 : 128 MiB (5%)
    Title                       : Español latino [CinemaniaHDD]
    Language                    : Spanish
    Service kind                : Complete Main
    Default                     : Yes
    Forced                      : No

    Audio #2
    ID                          : 3
    Format                      : E-AC-3 JOC
    Format/Info                 : Enhanced AC-3 with Joint Object Coding
    Commercial name             : Dolby Digital Plus with Dolby Atmos
    Codec ID                    : A_EAC3
    Duration                    : 40 min 2 s
    Bit rate mode               : Constant
    Bit rate                    : 768 kb/s
    Channel(s)                  : 6 channels
    Channel layout              : L R C LFE Ls Rs
    Sampling rate               : 48.0 kHz
    Frame rate                  : 31.250 FPS (1536 SPF)
    Compression mode            : Lossy
    Stream size                 : 220 MiB (9%)
    Title                       : Inglés [CinemaniaHDD]
    Language                    : English
    Service kind                : Complete Main
    Default                     : No
    Forced                      : No
    Complexity index            : 16
    Number of dynamic objects   : 15
    Bed channel count           : 1 channel
    Bed channel configuration   : LFE

    Text #1
    ID                          : 4
    Format                      : UTF-8
    Codec ID                    : S_TEXT/UTF8
    Codec ID/Info               : UTF-8 Plain Text
    Duration                    : 39 min 29 s
    Bit rate                    : 3 b/s
    Count of elements           : 36
    Stream size                 : 1.04 KiB (0%)
    Title                       : Forzados [CinemaniaHDD]
    Language                    : Spanish
    Default                     : Yes
    Forced                      : Yes

    Text #2
    ID                          : 5
    Format                      : UTF-8
    Codec ID                    : S_TEXT/UTF8
    Codec ID/Info               : UTF-8 Plain Text
    Duration                    : 38 min 36 s
    Bit rate                    : 84 b/s
    Count of elements           : 616
    Stream size                 : 23.9 KiB (0%)
    Title                       : Español latino [CinemaniaHDD]
    Language                    : Spanish
    Default                     : No
    Forced                      : No

  • Peso: 2.42 GiB

Sinopsis

Descargar Fire in Paradise (2019) Web-DL 1080p Latino. Documental. Los supervivientes relatan el devastador incendio de 2018, el más mortífero de la historia de California, que destruyó el pueblo de Paradise.

Ficha técnica

  • Titulo original: Fire in Paradise
  • Fecha de lanzamiento: 01-11-2019
  • Género: Documental, Netflix

Video trailer de la película

Enlaces de descarga

Rip de Bluray

Descargar Fire in Paradise (2019) Web-DL 1080p Latino




Aportes de DPeliculasHDmega la pass es:dpeliculashdmega.org Aportes de CinemaniaHD la pass es:cinemaniahdd.com
Guardado en : Documental , Netflix

Películas relacionadas

  • Ustedes (2023) NF WEB-DL 1080p Latino

    Ustedes (2023) NF WEB-DL 1080p Latino

    2023
    Ustedes (2023) NF WEB-DL 1080p Latino

    1h 58m 2023

    Descargar Ustedes (2023) NF WEB-DL 1080p Latino. Dos mileniales de Los Ángeles de orígenes dispares...

    Director: Kenya Barris

    Género: Comedia

    Actores: Yung Miami

  • Narvik (2022) NF WEB-DL 1080p Latino

    Narvik (2022) NF WEB-DL 1080p Latino

    2022
    Narvik (2022) NF WEB-DL 1080p Latino

    1h 48m 2022

    Descargar Narvik (2022) NF WEB-DL 1080p Latino. Abril de 1940. Los ojos del mundo están puestos en Narvik,...

    Director: Suzanne Svae-Johansen

    Género: Acción

    Actores: Torfinn Nag

  • JUNG_E (2023) NF WEB-DL 1080p Latino

    JUNG_E (2023) NF WEB-DL 1080p Latino

    2023
    JUNG_E (2023) NF WEB-DL 1080p Latino

    1h 38m 2023

    Descargar JUNG_E (2023) NF WEB-DL 1080p Latino. Siglo XXII. En un planeta Tierra inhabitable, el resultado...

    Director: Yeon Sang-Ho

    Género: Acción

    Actores: Ryu Kyung-soo

  • Perro perdido (2023) NF WEB-DL 1080p Latino

    Perro perdido (2023) NF WEB-DL 1080p Latino

    2023
    Perro perdido (2023) NF WEB-DL 1080p Latino

    1h 35m 2023

    Descargar Perro perdido (2023) NF WEB-DL 1080p Latino. Cuando su querido perro desaparece, un chico y...

    Director: Stephen Herek

    Género: Aventura

    Actores: Rob Lowe

descargar Fire in Paradise (2019) Web-DL 1080p Latino WEBDL 1080p gratis, Fire in Paradise (2019) Web-DL 1080p Latino WEBDL mega 1 link, Fire in Paradise (2019) Web-DL 1080p Latino WEBDL pelicula completa, descargar Fire in Paradise (2019) Web-DL 1080p Latino WEBDL gratis en mega.

Fire in Paradise (2019) Web-DL 1080p Latino pelicula full hd, Fire in Paradise (2019) Web-DL 1080p Latino mega latino, Fire in Paradise (2019) Web-DL 1080p Latino 4k latino, Fire in Paradise (2019) Web-DL 1080p Latino pelicula completa, Fire in Paradise (2019) Web-DL 1080p Latino descargar gratis, descargar Fire in Paradise (2019) Web-DL 1080p Latino pelicula latino, Fire in Paradise (2019) Web-DL 1080p Latino 1 link mega, Fire in Paradise (2019) Web-DL 1080p Latino 1 link google drive, Fire in Paradise (2019) Web-DL 1080p Latino hd 1080p latino.
Comentarios 0