Finales, principios (2020) HD 1080p Latino

56 vistas
1 estrella2 estrellas3 estrellas4 estrellas5 estrellas (1 votos, promedio: 5,00 de 5)
Cargando...

Información de Finales, principios (2020) HD 1080p Latino

Datos de la película

  • Calidad: 1080p
  • Audio: Español Latino AC3 2.0 WEB-DL - Ingles AC3 5.1 BLURAY
  • Subtitulos: Español Latino SRT- FORZADOS SRT
  • Resolución: 1920x804p
  • Formato: MKV
  • Codec: H.264
  • Encoder: Melkor
  • Mediainfo: Clic para Mostrar Datos Ver
  • Finales, Principios (2019) HD 1080p Latino[CMHDD].mkv
    Format                      : Matroska
    Format version              : Version 4
    File size                   : 2.84 GiB
    Duration                    : 1 h 50 min
    Overall bit rate            : 3 690 kb/s
    Movie name                  : Endings, Beginnings (2019) CinemaniaHDD.Net
    Encoded date                : UTC 2021-03-21 07:46:39
    Writing application         : mkvmerge v51.0.0 ('I Wish') 64-bit
    Writing library             : libebml v1.4.0 + libmatroska v1.6.2
    Attachments                 : CINEMANIAHD.png

    Video
    ID                          : 1
    Format                      : AVC
    Format/Info                 : Advanced Video Codec
    Format profile              : High@L4.1
    Format settings             : CABAC / 5 Ref Frames
    Format settings, CABAC      : Yes
    Format settings, Reference  : 5 frames
    Codec ID                    : V_MPEG4/ISO/AVC
    Duration                    : 1 h 50 min
    Bit rate                    : 2 856 kb/s
    Width                       : 1 920 pixels
    Height                      : 804 pixels
    Display aspect ratio        : 2.40:1
    Frame rate mode             : Constant
    Frame rate                  : 24.000 FPS
    Color space                 : YUV
    Chroma subsampling          : 4:2:0
    Bit depth                   : 8 bits
    Scan type                   : Progressive
    Bits/(Pixel*Frame)          : 0.077
    Stream size                 : 2.20 GiB (77%)
    Title                       : HD1080p [CinemaniaHDD]
    Writing library             : x264 core 157 r2935 545de2f
    Encoding settings           : cabac=1 / ref=5 / deblock=1:-1:-1 / analyse=0x3:0x133 / me=umh / subme=9 / psy=1 / psy_rd=1.00:0.15 / mixed_ref=1 / me_range=16 / chroma_me=1 / trellis=2 / 8x8dct=1 / cqm=0 / deadzone=21,11 / fast_pskip=1 / chroma_qp_offset=-3 / threads=24 / lookahead_threads=2 / sliced_threads=0 / nr=0 / decimate=1 / interlaced=0 / bluray_compat=0 / constrained_intra=0 / bframes=3 / b_pyramid=2 / b_adapt=2 / b_bias=0 / direct=3 / weightb=1 / open_gop=0 / weightp=2 / keyint=240 / keyint_min=24 / scenecut=40 / intra_refresh=0 / rc_lookahead=60 / rc=crf / mbtree=1 / crf=20.0 / qcomp=0.60 / qpmin=0 / qpmax=69 / qpstep=4 / vbv_maxrate=62500 / vbv_bufsize=78125 / crf_max=0.0 / nal_hrd=none / filler=0 / ip_ratio=1.40 / aq=1:1.00
    Default                     : Yes
    Forced                      : Yes
    Color range                 : Limited
    Color primaries             : BT.709
    Transfer characteristics    : BT.709
    Matrix coefficients         : BT.709

    Audio #1
    ID                          : 2
    Format                      : AC-3
    Format/Info                 : Audio Coding 3
    Commercial name             : Dolby Digital
    Codec ID                    : A_AC3
    Duration                    : 1 h 50 min
    Bit rate mode               : Constant
    Bit rate                    : 384 kb/s
    Channel(s)                  : 2 channels
    Channel layout              : L R
    Sampling rate               : 48.0 kHz
    Frame rate                  : 31.250 FPS (1536 SPF)
    Compression mode            : Lossy
    Delay relative to video     : -5 ms
    Stream size                 : 302 MiB (10%)
    Title                       : Español Latino [CinemaniaHDD]
    Language                    : Spanish
    Service kind                : Complete Main
    Default                     : Yes
    Forced                      : Yes

    Audio #2
    ID                          : 3
    Format                      : AC-3
    Format/Info                 : Audio Coding 3
    Commercial name             : Dolby Digital
    Codec ID                    : A_AC3
    Duration                    : 1 h 50 min
    Bit rate mode               : Constant
    Bit rate                    : 448 kb/s
    Channel(s)                  : 6 channels
    Channel layout              : L R C LFE Ls Rs
    Sampling rate               : 48.0 kHz
    Frame rate                  : 31.250 FPS (1536 SPF)
    Compression mode            : Lossy
    Delay relative to video     : -5 ms
    Stream size                 : 353 MiB (12%)
    Title                       : Ingles [CinemaniaHDD]
    Language                    : English
    Service kind                : Complete Main
    Default                     : No
    Forced                      : No

    Text #1
    ID                          : 4
    Format                      : UTF-8
    Codec ID                    : S_TEXT/UTF8
    Codec ID/Info               : UTF-8 Plain Text
    Duration                    : 1 h 42 min
    Bit rate                    : 2 b/s
    Count of elements           : 54
    Stream size                 : 1.83 KiB (0%)
    Title                       : Forzados-SRT [CinemaniaHDD]
    Language                    : Spanish
    Default                     : Yes
    Forced                      : Yes

    Text #2
    ID                          : 5
    Format                      : UTF-8
    Codec ID                    : S_TEXT/UTF8
    Codec ID/Info               : UTF-8 Plain Text
    Duration                    : 1 h 44 min
    Bit rate                    : 51 b/s
    Count of elements           : 1380
    Stream size                 : 39.6 KiB (0%)
    Title                       : Español-SRT [CinemaniaHDD]
    Language                    : Spanish
    Default                     : No
    Forced                      : No

    Text #3
    ID                          : 6
    Format                      : UTF-8
    Codec ID                    : S_TEXT/UTF8
    Codec ID/Info               : UTF-8 Plain Text
    Duration                    : 1 h 43 min
    Bit rate                    : 54 b/s
    Count of elements           : 1437
    Stream size                 : 41.6 KiB (0%)
    Title                       : Ingles-SRT [CinemaniaHDD]
    Language                    : English
    Default                     : No
    Forced                      : No

    Menu
    00:00:00.000                : en:Chapter 01
    00:05:55.875                : en:Chapter 02
    00:13:04.708                : en:Chapter 03
    00:20:04.417                : en:Chapter 04
    00:28:09.500                : en:Chapter 05
    00:36:59.208                : en:Chapter 06
    00:43:39.792                : en:Chapter 07
    00:51:38.583                : en:Chapter 08
    00:58:36.917                : en:Chapter 09
    01:04:36.625                : en:Chapter 10
    01:10:26.500                : en:Chapter 11
    01:16:05.625                : en:Chapter 12
    01:26:34.875                : en:Chapter 13
    01:33:38.125                : en:Chapter 14
    01:37:58.792                : en:Chapter 15
    01:45:02.083                : en:Chapter 16

  • Peso: 2.84 GiB

Sinopsis

Descargar Finales, principios (2020) HD 1080p Latino. Daphne, una mujer treintañera que trata de superar una ruptura sentimental vive a lo largo de un año una serie de acontecimientos que cambian para siempre su vida, descubriendo cosas sobre sí misma que desconocía por completo.

Actualizado con Mejor Audio Latino y Subtitulos En español!!

Ficha técnica

  • Titulo original: Endings, Beginnings
  • Fecha de lanzamiento: 24-06-2020 (South Korea, United States of America)
  • Director: Drake Doremus
  • Género: Drama, HD 1080p, Romance
  • Puntuación: 5.0 1 votos
  • Duración:
    1h 50m

Video trailer de la película

Enlaces de descarga

Rip de Bluray

Descargar Finales, principios (2020) HD 1080p Latino




Aportes de DPeliculasHDmega la pass es:dpeliculashdmega.org Aportes de CinemaniaHD la pass es:cinemaniahdd.com
Guardado en : Drama , HD 1080p , Romance

Películas relacionadas

  • Horizon Line (2020) HD 1080p Latino

    Horizon Line (2020) HD 1080p Latino

    2020
    Horizon Line (2020) HD 1080p Latino

    0.0 1h 31m 2020

    Descargar Horizon Line (2020) HD 1080p Latino. Una pareja que viaja en un avión pequeño para asistir...

    Director: Mikael Marcimain

    Género: HD 1080p

    Actores: Pearl Mackie

  • Sola (2020) HD 1080p Latino

    Sola (2020) HD 1080p Latino

    2020
    Sola (2020) HD 1080p Latino

    0.0 1h 40m 2020

    Descargar Sola (2020) HD 1080p Latino. Una mujer viuda que viaja sola es secuestrada por un asesino a...

    Director: John Hyams

    Género: Drama

    Actores: Shelly Lipkin

  • Sola (2020) REMUX 1080p Latino

    Sola (2020) REMUX 1080p Latino

    2020
    Sola (2020) REMUX 1080p Latino

    5.0 1h 40m 2020

    Descargar Sola (2020) REMUX 1080p Latino. Una mujer viuda que viaja sola es secuestrada por un asesino...

    Director: John Hyams

    Género: Drama

    Actores: Shelly Lipkin

  • La Red De Corrupcion (2019) HD 1080p Latino

    La Red De Corrupcion (2019) HD 1080p Latino

    2019
    La Red De Corrupcion (2019) HD 1080p Latino

    5.0 1h 45m 2019

    Descargar La Red De Corrupcion (2019) HD 1080p Latino. Con los Juegos Olímpicos de 2012 de Londres...

    Director: Ron Scalpello

    Género: Crimen

    Actores: Timothy Spall

Finales, principios (2020) HD 1080p Latino pelicula full hd, Finales, principios (2020) HD 1080p Latino mega latino, Finales, principios (2020) HD 1080p Latino 4k latino, Finales, principios (2020) HD 1080p Latino pelicula completa, Finales, principios (2020) HD 1080p Latino descargar gratis, descargar Finales, principios (2020) HD 1080p Latino pelicula latino, Finales, principios (2020) HD 1080p Latino 1 link mega, Finales, principios (2020) HD 1080p Latino 1 link google drive, Finales, principios (2020) HD 1080p Latino hd 1080p latino.
Comentarios 0