×

¿Problemas para descargar con Mozilla, EDGE? Deshabilita la opción "Abrir vinculos en una pestaña nueva" tal como lo muestra ésta imagen.

Finales, principios (2020) REMUX 1080p Latino

341 vistas

Información de Finales, principios (2020) REMUX 1080p Latino

Datos de la película

  • Calidad: Full 1080p
  • Audio: Se especifica abajo de la Sinopsis
  • Subtitulos: Español Latino SRT- FORZADOS SRT
  • Resolución: 1920x1080p
  • Formato: MKV
  • Codec: H.264
  • Encoder: Melkor
  • Mediainfo: Clic para Mostrar Datos Ver
  • Finales, Principios (2019) REMUX 1080p Latino[CMHDD].mkv
    Format                      : Matroska
    Format version              : Version 4
    File size                   : 29.2 GiB
    Duration                    : 1 h 50 min
    Overall bit rate mode       : Variable
    Overall bit rate            : 38.0 Mb/s
    Movie name                  : Endings, Beginnings (2019) CinemaniaHDD.Net
    Encoded date                : UTC 2021-03-21 07:38:16
    Writing application         : mkvmerge v51.0.0 ('I Wish') 64-bit
    Writing library             : libebml v1.4.0 + libmatroska v1.6.2
    Attachments                 : CINEMANIAHD.png

    Video
    ID                          : 1
    Format                      : AVC
    Format/Info                 : Advanced Video Codec
    Format profile              : High@L4.1
    Format settings             : CABAC / 4 Ref Frames
    Format settings, CABAC      : Yes
    Format settings, Reference  : 4 frames
    Codec ID                    : V_MPEG4/ISO/AVC
    Duration                    : 1 h 50 min
    Bit rate mode               : Variable
    Bit rate                    : 34.3 Mb/s
    Maximum bit rate            : 36.0 Mb/s
    Width                       : 1 920 pixels
    Height                      : 1 080 pixels
    Display aspect ratio        : 16:9
    Frame rate mode             : Constant
    Frame rate                  : 24.000 FPS
    Color space                 : YUV
    Chroma subsampling          : 4:2:0
    Bit depth                   : 8 bits
    Scan type                   : Progressive
    Bits/(Pixel*Frame)          : 0.689
    Stream size                 : 26.4 GiB (90%)
    Title                       : REMUX HD1080p [CinemaniaHDD]
    Language                    : English
    Default                     : Yes
    Forced                      : Yes

    Audio #1
    ID                          : 2
    Format                      : AC-3
    Format/Info                 : Audio Coding 3
    Commercial name             : Dolby Digital
    Codec ID                    : A_AC3
    Duration                    : 1 h 50 min
    Bit rate mode               : Constant
    Bit rate                    : 384 kb/s
    Channel(s)                  : 2 channels
    Channel layout              : L R
    Sampling rate               : 48.0 kHz
    Frame rate                  : 31.250 FPS (1536 SPF)
    Compression mode            : Lossy
    Stream size                 : 302 MiB (1%)
    Title                       : Español Latino [CinemaniaHDD]
    Language                    : Spanish
    Service kind                : Complete Main
    Default                     : Yes
    Forced                      : Yes

    Audio #2
    ID                          : 3
    Format                      : DTS XLL
    Format/Info                 : Digital Theater Systems
    Commercial name             : DTS-HD Master Audio
    Codec ID                    : A_DTS
    Duration                    : 1 h 50 min
    Bit rate mode               : Variable
    Bit rate                    : 3 275 kb/s
    Channel(s)                  : 6 channels
    Channel layout              : C L R Ls Rs LFE
    Sampling rate               : 48.0 kHz
    Frame rate                  : 93.750 FPS (512 SPF)
    Bit depth                   : 24 bits
    Compression mode            : Lossless
    Stream size                 : 2.52 GiB (9%)
    Title                       : Ingles [CinemaniaHDD]
    Language                    : English
    Default                     : No
    Forced                      : No

    Text #1
    ID                          : 4
    Format                      : UTF-8
    Codec ID                    : S_TEXT/UTF8
    Codec ID/Info               : UTF-8 Plain Text
    Duration                    : 1 h 42 min
    Bit rate                    : 2 b/s
    Count of elements           : 54
    Stream size                 : 1.83 KiB (0%)
    Title                       : Forzados-SRT [CinemaniaHDD]
    Language                    : Spanish
    Default                     : Yes
    Forced                      : Yes

    Text #2
    ID                          : 5
    Format                      : UTF-8
    Codec ID                    : S_TEXT/UTF8
    Codec ID/Info               : UTF-8 Plain Text
    Duration                    : 1 h 44 min
    Bit rate                    : 51 b/s
    Count of elements           : 1380
    Stream size                 : 39.6 KiB (0%)
    Title                       : Español-SRT [CinemaniaHDD]
    Language                    : Spanish
    Default                     : No
    Forced                      : No

    Text #3
    ID                          : 6
    Format                      : UTF-8
    Codec ID                    : S_TEXT/UTF8
    Codec ID/Info               : UTF-8 Plain Text
    Duration                    : 1 h 43 min
    Bit rate                    : 54 b/s
    Count of elements           : 1437
    Stream size                 : 41.6 KiB (0%)
    Title                       : Ingles-SRT [CinemaniaHDD]
    Language                    : English
    Default                     : No
    Forced                      : No

    Menu
    00:00:00.000                : en:Chapter 01
    00:05:55.875                : en:Chapter 02
    00:13:04.708                : en:Chapter 03
    00:20:04.417                : en:Chapter 04
    00:28:09.500                : en:Chapter 05
    00:36:59.208                : en:Chapter 06
    00:43:39.792                : en:Chapter 07
    00:51:38.583                : en:Chapter 08
    00:58:36.917                : en:Chapter 09
    01:04:36.625                : en:Chapter 10
    01:10:26.500                : en:Chapter 11
    01:16:05.625                : en:Chapter 12
    01:26:34.875                : en:Chapter 13
    01:33:38.125                : en:Chapter 14
    01:37:58.792                : en:Chapter 15
    01:45:02.083                : en:Chapter 16

  • Peso: 29.2 GiB

Sinopsis

Descargar Finales, principios (2020) REMUX 1080p Latino. Daphne, una mujer treintañera que trata de superar una ruptura sentimental vive a lo largo de un año una serie de acontecimientos que cambian para siempre su vida, descubriendo cosas sobre sí misma que desconocía por completo.

Español Latino Web 2.0 – DTS-HD 5.1 Bluray
Actualizado con Mejor Audio Latino y Subtitulos En español!!

Ficha técnica

  • Titulo original: Endings, Beginnings
  • Fecha de lanzamiento: 24-06-2020 (South Korea, United States of America)
  • Director: Drake Doremus
  • Género: Drama, Remux, Romance

Video trailer de la película

Enlaces de descarga

Rip de Bluray

Descargar Finales, principios (2020) REMUX 1080p Latino




Aportes de DPeliculasHDmega la pass es:dpeliculashdmega.org Aportes de CinemaniaHD la pass es:cinemaniahdd.com
Guardado en : Drama , Remux , Romance

Películas relacionadas

  • Noche sin paz (2022) REMUX 1080p Latino

    Noche sin paz (2022) REMUX 1080p Latino

    2022
    Noche sin paz (2022) REMUX 1080p Latino

    1h 41m 2022

    Descargar Noche sin paz (2022) REMUX 1080p Latino. Cuando un equipo de mercenarios irrumpe en Nochebuena...

    Director: Tyshana Hobson

    Género: Acción

    Actores: Yoon Cha-Lee

  • Narvik (2022) NF WEB-DL 1080p Latino

    Narvik (2022) NF WEB-DL 1080p Latino

    2022
    Narvik (2022) NF WEB-DL 1080p Latino

    1h 48m 2022

    Descargar Narvik (2022) NF WEB-DL 1080p Latino. Abril de 1940. Los ojos del mundo están puestos en Narvik,...

    Director: Suzanne Svae-Johansen

    Género: Acción

    Actores: Torfinn Nag

descargar Finales, principios (2020) REMUX 1080p Latino Full 1080p 1080p gratis, Finales, principios (2020) REMUX 1080p Latino Full 1080p mega 1 link, Finales, principios (2020) REMUX 1080p Latino Full 1080p pelicula completa, descargar Finales, principios (2020) REMUX 1080p Latino Full 1080p gratis en mega.

Finales, principios (2020) REMUX 1080p Latino pelicula full hd, Finales, principios (2020) REMUX 1080p Latino mega latino, Finales, principios (2020) REMUX 1080p Latino 4k latino, Finales, principios (2020) REMUX 1080p Latino pelicula completa, Finales, principios (2020) REMUX 1080p Latino descargar gratis, descargar Finales, principios (2020) REMUX 1080p Latino pelicula latino, Finales, principios (2020) REMUX 1080p Latino 1 link mega, Finales, principios (2020) REMUX 1080p Latino 1 link google drive, Finales, principios (2020) REMUX 1080p Latino hd 1080p latino.
Comentarios 0