×

¿Problemas para descargar con Mozilla, EDGE? Deshabilita la opción "Abrir vinculos en una pestaña nueva" tal como lo muestra ésta imagen.

Fiesta en Casa (2023) AMZN WEB-DL 1080p Latino

240 vistas

Información de Fiesta en Casa (2023) AMZN WEB-DL 1080p Latino

Datos de la película

  • Calidad: WEBDL
  • Audio: Español Latino AC3 5.1 WEB-DL - Ingles AC3 5.1 WEB-DL
  • Subtitulos: Español Latino SRT- FORZADOS SRT
  • Resolución: 1920x1040p
  • Formato: MKV
  • Codec: H.264
  • Encoder: Melkor
  • Mediainfo: Clic para Mostrar Datos Ver
  • Fiesta en Casa (2023) AMZN WebDL 1080p Latino.mkv
    Format                      : Matroska
    Format version              : Version 4
    File size                   : 7.51 GiB
    Duration                    : 1 h 40 min
    Overall bit rate            : 10.7 Mb/s
    Movie name                  : House Party (2023) CinemaniaHDD.Net
    Encoded date                : UTC 2023-03-08 06:54:21
    Writing application         : mkvmerge v56.1.0 ('My Friend') 64-bit
    Writing library             : libebml v1.4.2 + libmatroska v1.6.4
    Attachments                 : CINEMANIAHD.png
    Site                        : CinemaniaHDD.Net
    Uploader                    : Melkor

    Video
    ID                          : 1
    Format                      : AVC
    Format/Info                 : Advanced Video Codec
    Format profile              : High@L4
    Format settings             : CABAC / 4 Ref Frames
    Format settings, CABAC      : Yes
    Format settings, Reference  : 4 frames
    Codec ID                    : V_MPEG4/ISO/AVC
    Duration                    : 1 h 40 min
    Bit rate mode               : Constant
    Bit rate                    : 10 000 kb/s
    Width                       : 1 920 pixels
    Height                      : 1 040 pixels
    Display aspect ratio        : 1.85:1
    Frame rate mode             : Constant
    Frame rate                  : 23.976 (24000/1001) FPS
    Color space                 : YUV
    Chroma subsampling          : 4:2:0
    Bit depth                   : 8 bits
    Scan type                   : Progressive
    Bits/(Pixel*Frame)          : 0.209
    Stream size                 : 6.79 GiB (90%)
    Title                       : Web HD1080p [CinemaniaHDD]
    Language                    : English
    Default                     : Yes
    Forced                      : Yes
    Color range                 : Limited
    Color primaries             : BT.709
    Transfer characteristics    : BT.709
    Matrix coefficients         : BT.709

    Audio #1
    ID                          : 2
    Format                      : AC-3
    Format/Info                 : Audio Coding 3
    Commercial name             : Dolby Digital
    Codec ID                    : A_AC3
    Duration                    : 1 h 40 min
    Bit rate mode               : Constant
    Bit rate                    : 384 kb/s
    Channel(s)                  : 6 channels
    Channel layout              : L R C LFE Ls Rs
    Sampling rate               : 48.0 kHz
    Frame rate                  : 31.250 FPS (1536 SPF)
    Compression mode            : Lossy
    Delay relative to video     : 11 ms
    Stream size                 : 275 MiB (4%)
    Title                       : Español Latino [CinemaniaHDD]
    Language                    : Spanish
    Service kind                : Complete Main
    Default                     : Yes
    Forced                      : Yes

    Audio #2
    ID                          : 3
    Format                      : E-AC-3
    Format/Info                 : Enhanced AC-3
    Commercial name             : Dolby Digital Plus
    Codec ID                    : A_EAC3
    Duration                    : 1 h 40 min
    Bit rate mode               : Constant
    Bit rate                    : 640 kb/s
    Channel(s)                  : 6 channels
    Channel layout              : L R C LFE Ls Rs
    Sampling rate               : 48.0 kHz
    Frame rate                  : 31.250 FPS (1536 SPF)
    Compression mode            : Lossy
    Stream size                 : 459 MiB (6%)
    Title                       : Ingles [CinemaniaHDD]
    Language                    : English
    Service kind                : Complete Main
    Default                     : No
    Forced                      : No

    Text #1
    ID                          : 4
    Format                      : UTF-8
    Codec ID                    : S_TEXT/UTF8
    Codec ID/Info               : UTF-8 Plain Text
    Duration                    : 1 h 39 min
    Bit rate                    : 1 b/s
    Count of elements           : 24
    Stream size                 : 884 Bytes (0%)
    Title                       : Forzados-SRT [CinemaniaHDD]
    Language                    : Spanish
    Default                     : Yes
    Forced                      : Yes

    Text #2
    ID                          : 5
    Format                      : UTF-8
    Codec ID                    : S_TEXT/UTF8
    Codec ID/Info               : UTF-8 Plain Text
    Duration                    : 1 h 39 min
    Bit rate                    : 72 b/s
    Count of elements           : 1720
    Stream size                 : 53.0 KiB (0%)
    Title                       : Español-SRT [CinemaniaHDD]
    Language                    : Spanish
    Default                     : No
    Forced                      : No

    Text #3
    ID                          : 6
    Format                      : UTF-8
    Codec ID                    : S_TEXT/UTF8
    Codec ID/Info               : UTF-8 Plain Text
    Duration                    : 1 h 39 min
    Bit rate                    : 84 b/s
    Count of elements           : 2014
    Stream size                 : 61.7 KiB (0%)
    Title                       : Ingles-SRT [CinemaniaHDD]
    Language                    : English
    Default                     : No
    Forced                      : No

  • Peso: 7.51 GiB

Sinopsis

Descargar Fiesta en Casa (2023) AMZN WEB-DL 1080p Latino. Un estudiante de secundaria decide organizar una fiesta en casa mientras sus padres no están. Una nueva versión de la comedia de 1990, ‘House Party’.

Ficha técnica

  • Titulo original: House Party
  • Fecha de lanzamiento: 12-01-2023 (United States of America)
  • Director: Calmatic
  • Género: Comedia

Video trailer de la película

Enlaces de descarga

Rip de Bluray

Descargar Fiesta en Casa (2023) AMZN WEB-DL 1080p Latino




Aportes de DPeliculasHDmega la pass es:dpeliculashdmega.org Aportes de CinemaniaHD la pass es:cinemaniahdd.com Aportes recientes:cinemaniahdd.net
Guardado en : Comedia

Películas relacionadas

  • Who Invited Charlie? (2023) AMZN WEB-DL 1080p Latino

    Who Invited Charlie? (2023) AMZN WEB-DL 1080p Latino

    2023
    Who Invited Charlie? (2023) AMZN WEB-DL 1080p Latino

    1h 41m 2023

    Phil y su familia buscan refugio en los Hamptons para esquivar la pandemia, pero su paz se acaba con...

    Director: Xavier Manrique

    Género: Comedia

    Actores: Xosha Roquemore

  • Players (2024) NF WEB-DL 1080p Latino

    Players (2024) NF WEB-DL 1080p Latino

    2024
    Players (2024) NF WEB-DL 1080p Latino

    1h 45m 2024

    Descargar Players (2024) NF WEB-DL 1080p Latino. Una periodista deportiva neoyorquina con un ingenioso...

    Director: Trish Sie

    Género: Comedia

    Actores: Veraalba Santa

  • ¡Patos! (2023) HD 1080p Latino

    ¡Patos! (2023) HD 1080p Latino

    2023
    ¡Patos! (2023) HD 1080p Latino

    1h 23m 2023

    Descargar ¡Patos! (2023) HD 1080p Latino. Después de que una familia de patos migratorios aterriza...

    Director: Guy-Laurent Homsy

    Género: Acción

    Actores: Zeno Robinson

descargar Fiesta en Casa (2023) AMZN WEB-DL 1080p Latino WEBDL 1080p gratis, Fiesta en Casa (2023) AMZN WEB-DL 1080p Latino WEBDL mega 1 link, Fiesta en Casa (2023) AMZN WEB-DL 1080p Latino WEBDL pelicula completa, descargar Fiesta en Casa (2023) AMZN WEB-DL 1080p Latino WEBDL gratis en mega.

Fiesta en Casa (2023) AMZN WEB-DL 1080p Latino pelicula full hd, Fiesta en Casa (2023) AMZN WEB-DL 1080p Latino mega latino, Fiesta en Casa (2023) AMZN WEB-DL 1080p Latino 4k latino, Fiesta en Casa (2023) AMZN WEB-DL 1080p Latino pelicula completa, Fiesta en Casa (2023) AMZN WEB-DL 1080p Latino descargar gratis, descargar Fiesta en Casa (2023) AMZN WEB-DL 1080p Latino pelicula latino, Fiesta en Casa (2023) AMZN WEB-DL 1080p Latino 1 link mega, Fiesta en Casa (2023) AMZN WEB-DL 1080p Latino 1 link google drive, Fiesta en Casa (2023) AMZN WEB-DL 1080p Latino hd 1080p latino.
Comentarios 0