Fiebre del sábado noche (1977) Full 1080p Latino

3.122 vistas
1 estrella2 estrellas3 estrellas4 estrellas5 estrellas (1 votos, promedio: 5,00 de 5)
Cargando…

Información de Fiebre del sábado noche (1977) Full 1080p Latino

Datos de la película

  • Calidad: Full 1080p
  • Audio: Español Latino AC3 2.0 BLURAY - Ingles AC3 5.1 BLURAY
  • Subtitulos: Español Latino PGS - Ingles PGS
  • Resolución: 1920x1080p
  • Formato: MKV
  • Codec: H.264
  • Encoder: Dracarys
  • Mediainfo: Clic para Mostrar Datos Ver
  • Format                                   : Matroska
    Format version                           : Version 4 / Version 2
    File size                                : 12.1 GiB
    Duration                                 : 1 h 59 min
    Overall bit rate                         : 14.5 Mb/s
    Movie name                               : CinemaniaHDD.com
    Encoded date                             : UTC 2018-03-15 01:59:55 / UTC 2018-03-14T19:54:13Z
    Writing application                      : mkvmerge v15.0.0 ('Duel with the Devil') 64-bit
    Writing library                          : libebml v1.3.5 + libmatroska v1.4.5 / Lavf57.7.2

    Video
    ID                                       : 1
    Format                                   : AVC
    Format/Info                              : Advanced Video Codec
    Format profile                           : [email protected]
    Format settings                          : CABAC / 4 Ref Frames
    Format settings, CABAC                   : Yes
    Format settings, RefFrames               : 4 frames
    Codec ID                                 : V_MPEG4/ISO/AVC
    Duration                                 : 1 h 59 min
    Bit rate                                 : 13.1 Mb/s
    Width                                    : 1 920 pixels
    Height                                   : 1 080 pixels
    Display aspect ratio                     : 16:9
    Frame rate mode                          : Constant
    Frame rate                               : 23.976 (24000/1001) FPS
    Color space                              : YUV
    Chroma subsampling                       : 4:2:0
    Bit depth                                : 8 bits
    Scan type                                : Progressive
    Bits/(Pixel*Frame)                       : 0.264
    Stream size                              : 10.9 GiB (91%)
    Title                                    : Fiebre del sábado noche (1977) Full 1080p Latino
    Writing library                          : x264 core 148 r2708 86b7198
    Encoding settings                        : cabac=1 / ref=4 / deblock=1:0:0 / analyse=0x3:0x133 / me=esa / subme=9 / psy=1 / psy_rd=1.00:0.00 / mixed_ref=1 / me_range=16 / chroma_me=1 / trellis=2 / 8x8dct=1 / cqm=0 / deadzone=21,11 / fast_pskip=1 / chroma_qp_offset=-2 / threads=34 / lookahead_threads=2 / sliced_threads=0 / nr=0 / decimate=1 / interlaced=0 / bluray_compat=0 / constrained_intra=0 / bframes=3 / b_pyramid=2 / b_adapt=2 / b_bias=0 / direct=3 / weightb=1 / open_gop=0 / weightp=2 / keyint=240 / keyint_min=24 / scenecut=40 / intra_refresh=0 / rc_lookahead=60 / rc=crf / mbtree=1 / crf=20.0 / qcomp=0.60 / qpmin=0 / qpmax=69 / qpstep=4 / vbv_maxrate=62500 / vbv_bufsize=78125 / crf_max=0.0 / nal_hrd=none / filler=0 / ip_ratio=1.40 / aq=1:1.00
    Language                                 : English
    Default                                  : Yes
    Forced                                   : No
    Color range                              : Limited
    Color primaries                          : BT.709
    Transfer characteristics                 : BT.709
    Matrix coefficients                      : BT.709
    Statistics Tags Issue                    : mkvmerge v15.0.0 ('Duel with the Devil') 64-bit 2018-03-15 01:59:55 / mkvmerge v15.0.0 ('Duel with the Devil') 64-bit 2018-03-15 01:59:55 / UTC 2018-03-14T19:54:13Z
    FromStats_BitRate                        : 13368835
    FromStats_Duration                       : 01:59:03.178000000
    FromStats_FrameCount                     : 171265
    FromStats_StreamSize                     : 11936996664

    Audio #1
    ID                                       : 2
    Format                                   : AC-3
    Format/Info                              : Audio Coding 3
    Format settings, Endianness              : Big
    Codec ID                                 : A_AC3
    Duration                                 : 1 h 59 min
    Bit rate mode                            : Constant
    Bit rate                                 : 224 kb/s
    Channel(s)                               : 2 channels
    Channel positions                        : Front: L R
    Sampling rate                            : 48.0 kHz
    Frame rate                               : 31.250 FPS (1536 SPF)
    Bit depth                                : 16 bits
    Compression mode                         : Lossy
    Delay relative to video                  : 1 s 0 ms
    Stream size                              : 191 MiB (2%)
    Language                                 : Spanish
    Service kind                             : Complete Main
    Default                                  : Yes
    Forced                                   : No
    Statistics Tags Issue                    : mkvmerge v15.0.0 ('Duel with the Devil') 64-bit 2018-03-15 01:59:55 / mkvmerge v15.0.0 ('Duel with the Devil') 64-bit 2018-03-15 01:59:55 / UTC 2018-03-14T19:54:13Z
    FromStats_BitRate                        : 224000
    FromStats_Duration                       : 01:59:02.272000000
    FromStats_FrameCount                     : 223196
    FromStats_StreamSize                     : 199983616

    Audio #2
    ID                                       : 3
    Format                                   : AC-3
    Format/Info                              : Audio Coding 3
    Format settings, Endianness              : Big
    Codec ID                                 : A_AC3
    Duration                                 : 1 h 59 min
    Bit rate mode                            : Constant
    Bit rate                                 : 224 kb/s
    Channel(s)                               : 2 channels
    Channel positions                        : Front: L R
    Sampling rate                            : 48.0 kHz
    Frame rate                               : 31.250 FPS (1536 SPF)
    Bit depth                                : 16 bits
    Compression mode                         : Lossy
    Delay relative to video                  : 1 s 0 ms
    Stream size                              : 191 MiB (2%)
    Language                                 : English
    Service kind                             : Complete Main
    Default                                  : No
    Forced                                   : No
    Statistics Tags Issue                    : mkvmerge v15.0.0 ('Duel with the Devil') 64-bit 2018-03-15 01:59:55 / mkvmerge v15.0.0 ('Duel with the Devil') 64-bit 2018-03-15 01:59:55 / UTC 2018-03-14T19:54:13Z
    FromStats_BitRate                        : 224000
    FromStats_Duration                       : 01:59:02.272000000
    FromStats_FrameCount                     : 223196
    FromStats_StreamSize                     : 199983616

    Audio #3
    ID                                       : 6
    Format                                   : AC-3
    Format/Info                              : Audio Coding 3
    Format settings, Endianness              : Big
    Codec ID                                 : A_AC3
    Duration                                 : 1 h 59 min
    Bit rate mode                            : Constant
    Bit rate                                 : 640 kb/s
    Channel(s)                               : 6 channels
    Channel positions                        : Front: L C R, Side: L R, LFE
    Sampling rate                            : 48.0 kHz
    Frame rate                               : 31.250 FPS (1536 SPF)
    Bit depth                                : 16 bits
    Compression mode                         : Lossy
    Stream size                              : 545 MiB (4%)
    Title                                    : Ingles-PGS
    Language                                 : English
    Service kind                             : Complete Main
    Default                                  : No
    Forced                                   : No
    Statistics Tags Issue                    : mkvmerge v15.0.0 ('Duel with the Devil') 64-bit 2018-03-15 01:59:55 / mkvmerge v15.0.0 ('Duel with the Devil') 64-bit 2018-03-15 01:59:55 / UTC 2018-03-14T19:54:13Z
    FromStats_BitRate                        : 640000
    FromStats_Duration                       : 01:59:03.200000000
    FromStats_FrameCount                     : 223225
    FromStats_StreamSize                     : 571456000

    Text #1
    ID                                       : 4
    Format                                   : UTF-8
    Codec ID                                 : S_TEXT/UTF8
    Codec ID/Info                            : UTF-8 Plain Text
    Title                                    : Latino-SRT
    Language                                 : Spanish
    Default                                  : No
    Forced                                   : No
    Statistics Tags Issue                    : mkvmerge v15.0.0 ('Duel with the Devil') 64-bit 2018-03-15 01:59:55 / mkvmerge v15.0.0 ('Duel with the Devil') 64-bit 2018-03-15 01:59:55 / UTC 2018-03-14T19:54:13Z
    FromStats_BitRate                        : 61
    FromStats_Duration                       : 01:55:09.223000000
    FromStats_FrameCount                     : 1327
    FromStats_StreamSize                     : 53178

    Text #2
    ID                                       : 5
    Format                                   : PGS
    Muxing mode                              : zlib
    Codec ID                                 : S_HDMV/PGS
    Codec ID/Info                            : Picture based subtitle format used on BDs/HD-DVDs
    Title                                    : Latino-PGS
    Language                                 : Spanish
    Default                                  : Yes
    Forced                                   : No
    Statistics Tags Issue                    : mkvmerge v15.0.0 ('Duel with the Devil') 64-bit 2018-03-15 01:59:55 / mkvmerge v15.0.0 ('Duel with the Devil') 64-bit 2018-03-15 01:59:55 / UTC 2018-03-14T19:54:13Z
    FromStats_BitRate                        : 55965
    FromStats_Duration                       : 01:55:09.200000000
    FromStats_FrameCount                     : 2654
    FromStats_StreamSize                     : 48334753

    Text #3
    ID                                       : 7
    Format                                   : UTF-8
    Codec ID                                 : S_TEXT/UTF8
    Codec ID/Info                            : UTF-8 Plain Text
    Title                                    : Latino-SRT
    Language                                 : Spanish
    Default                                  : No
    Forced                                   : No
    Statistics Tags Issue                    : mkvmerge v15.0.0 ('Duel with the Devil') 64-bit 2018-03-15 01:59:55 / mkvmerge v15.0.0 ('Duel with the Devil') 64-bit 2018-03-15 01:59:55 / UTC 2018-03-14T19:54:13Z
    FromStats_BitRate                        : 61
    FromStats_Duration                       : 01:55:09.223000000
    FromStats_FrameCount                     : 1327
    FromStats_StreamSize                     : 53178

    Text #4
    ID                                       : 8
    Format                                   : PGS
    Muxing mode                              : zlib
    Codec ID                                 : S_HDMV/PGS
    Codec ID/Info                            : Picture based subtitle format used on BDs/HD-DVDs
    Language                                 : English
    Default                                  : No
    Forced                                   : No
    Statistics Tags Issue                    : mkvmerge v15.0.0 ('Duel with the Devil') 64-bit 2018-03-15 01:59:55 / mkvmerge v15.0.0 ('Duel with the Devil') 64-bit 2018-03-15 01:59:55 / UTC 2018-03-14T19:54:13Z
    FromStats_BitRate                        : 32627
    FromStats_Duration                       : 01:54:23.989000000
    FromStats_FrameCount                     : 3162
    FromStats_StreamSize                     : 27993922

    Menu
    00:00:00.000                             : :Chapter 1
    00:06:39.065                             : :Chapter 2
    00:10:35.426                             : :Chapter 3
    00:13:00.113                             : :Chapter 4
    00:20:23.097                             : :Chapter 5
    00:23:18.147                             : :Chapter 6
    00:30:17.649                             : :Chapter 7
    00:34:23.520                             : :Chapter 8
    00:39:13.768                             : :Chapter 9
    00:51:53.527                             : :Chapter 10
    00:58:33.552                             : :Chapter 11
    01:01:47.370                             : :Chapter 12
    01:09:13.983                             : :Chapter 13
    01:11:27.033                             : :Chapter 14
    01:18:42.259                             : :Chapter 15
    01:27:40.005                             : :Chapter 16
    01:32:17.490                             : :Chapter 17
    01:39:56.991                             : :Chapter 18
    01:45:43.963                             : :Chapter 19
    01:50:25.911                             : :Chapter 20
    01:52:33.705                             : :Chapter 21

  • Peso: 12.1 GiB

Sinopsis

En Nueva York, después de trabajar toda la semana en una tienda de pinturas de Brooklyn, Tony Manero (John Travolta) se prepara esmeradamente para disfrutar de la noche del sábado: se empapa en colonia Brut, se pone una camisa de flores ajustada, pantalones de tela de gabardina y zapatos de plataforma. En la discoteca de moda, Tony deslumbrará a todos con lo que mejor sabe hacer: bailar.

Ficha técnica

Video trailer de la película

Enlaces de descarga

Rip de Bluray

Descargar Fiebre del sábado noche (1977) Full 1080p Latino




Aportes de DPeliculasHDmega la pass es:dpeliculashdmega.org Aportes de CinemaniaHD la pass es:cinemaniahdd.com

Películas relacionadas

  • Arizona (2018) 1080p Latino

    2018
    Arizona (2018) 1080p Latino

    5.0 1h 25m 2018

    Ambientada en medio de la crisis de la vivienda de 2009, esta oscura y cómica historia sigue a Cassie...

    Director: Mara Herdmann

    Género: Comedia

    Actores: Vivian Nesbitt

  • Si La Colonia Hablara (2018) Remux 1080p Subtitulado

    2018
    Si La Colonia Hablara (2018) Remux 1080p Subtitulado

    5.0 1h 57m 2018

    Descargar Si La Colonia Hablara (2018) Remux 1080p Subtitulado. Basada en la novela de James Baldwin,...

    Director: Barry Jenkins

    Género: Crimen

    Actores: Teyonah Parris

  • Si La Colonia Hablara (2018) Full 1080p Subtitulado

    2018
    Si La Colonia Hablara (2018) Full 1080p Subtitulado

    5.0 1h 57m 2018

    Descargar Si La Colonia Hablara (2018) Full 1080p Subtitulado, Mega, Google Drive. Basada en la novela...

    Director: Barry Jenkins

    Género: Crimen

    Actores: Teyonah Parris

  • Si La Colonia Hablara (2018) 1080p Subtitulado

    2018
    Si La Colonia Hablara (2018) 1080p Subtitulado

    0.0 1h 57m 2018

    Descargar Si La Colonia Hablara (2018) 1080p Subtitulado, Mega, Google Drive. Basada en la novela de...

    Director: Barry Jenkins

    Género: Crimen

    Actores: Teyonah Parris

Comentarios 1
  • TurukMato - 15 marzo, 2018

    exelente….amigo yo fui a ver esa movie a el cine.fue como todo 1 fiebre,ya que la musica disco estaba en todo su resplador…..1 adolesente loco..jejeje..tremendo clasico…GRACIAS.!!!!